EASY
BASIC
ADVANCED
EXPERT
MASTER
(185){16}3,,4,3,,,34,,3,,4,3,,,45,,6,,5,6,,,56,,6,,5,6,,,45,,
2,,4,2,,,34,,2,,4,2,,,45,,7,,5,7,,,56,,7,6,5,4,3,2,1,8,
2,,1,2,,,12,,2,,1,2,,,18,,7,,8,7,,,78,,7,,8,7,,,18,,1,8,1,8,2,7,2,7,3,6,3,6,4,5,4,5,
{32}4,5,6,7,8,1,2,3,4,5,6,7,8,1,2,3,{4}4-1[8:1]/5-8[8:1],4b/5b,
{8}1-5[8:1]/7,,1,8,8-4[8:1]/2,,8,1,16,{16}7,8,7,,2,1,{8}2,4,6,8,
{16}2^5[8:1],,,8,{8}8,7,6^1[8:1],5,4,3,2,{16}8,1,{8}8,3,45,,26,37,
8-4[8:1]/4,,8,1,1-5[8:1]/5,,1,8,48,{16}2,1,2,,7,8,{8}7,5,3,1,
{16}7^4[8:1],,,1,{8}1,2,3^8[8:1],4,5,6,57,{16}5,6,4,5,3,4,{8}2,,2,3,
4-8[8:1]/6,,4,5,5-1[8:1]/3,,5,4,47,{16}6,5,6,,3,4,{8}3,12,78,56,
{16}3^8[8:1],,,5,{8}5,6,7^4[8:1],8,1,2,{16}2,1,8,7,{8}6,8,17,,37,26,
5-1[8:1]/1,,5,4,4-8[8:1]/8,,4,5,15,{16}3,4,3,,6,5,{8}6,78,12,34,
,37,,26,48,37,26,15,{16}1,2,3,4,5,6,7,8,15,,,,4,5,4,5,
{8}36,,18,2^5[8:1],,2/7^2[8:1],,7,,{16}3,4,3,,6,5,{8}6,4,3,2-6[8:1],
,12,,7,78,16,25,34,12,{16}2,1,3,8,4,7,{8}56,,45,36,
27,,18,7^4[8:1],,7/2^7[8:1],,2,,{16}6,5,6,,3,4,{8}3,5,6,7,
{16}8,7,6,5,4,3,2,1,{8}8h[2:1],7,6,5,4,{16}4,5,6,7,8,1,{8}2,,4-1[8:1]/5-8[8:1],36,
,,27,3^8[8:1],,3/6^3[8:1],,6,,{16}2,1,2,,7,8,{8}7,1,2,3-7[8:1],
,43,,6,65,47,38,21,43,{16}3,4,2,5,1,6,{8}87,,3,4,
25,,37,6^1[8:1],,6/3^6[16:1],,3,,{16}7,8,7,,2,1,2,3,4,5,6,7,8,1,
25,4,3,2,1,8,7,6,52,3,4,5,6,7,8,1,2,,8,1,8,,18,,27,,,,6,5,7,4,
8^5[8:1],,,2,2,,2,,2^5[8:1],,,7,7,,7,,7^4[8:1],,,1,1,,1,,1w5[8:1],,,,1b,,,,
3^8[8:1],,,5,5,,5,,5^8[8:1],,,4,4,,4,,4^1[8:1],,,6,6,,6,,6,5,4,3,2,1,8,7,
1^4[8:1],,,7,7,,7,,7^4[8:1],,,2,2,,2,,2^5[8:1],,,8,8,,8,,8w4[8:1],,,,8b,,,,
{12}62,3,4,15,6,7,48,1,2,73,4,5,7-4[12:1],,7,2-5[12:1],,2,8-4[12:1],,8,1-5[12:1],,1,
{8}7h[8:3],,,8,16,,34,,{16}15,,,26,,,{8}37,4^1[8:1]/8^5[8:1],,,,
2h[8:3],,,1,83,,65,,{16}84,,,73,,,{8}62,1pp3[8:1]/5pp7[8:1],,,,
6h[8:3],,,5,47,,21,,{16}48,,,37,,,{8}26,1^4[8:1]/5^8[8:1],,,,
3h[8:3],,,4,52,,78,,{16}51,,,62,,,{8}73,4qq2[8:1]/8qq6[8:1],,,,
7h[4:1],,4,4h[4:1],,2,13,,4,5,6,7,8,1,26,,2h[4:1],,5,5h[4:1],,7,68,,5,4,3,2,1v3[8:1]/5v7[8:1],,,,
5<1[2:1]/1b,,1,2,3,4,5,6,3>7[2:1]/7b,,7,6,5,4,3,2,
1b^6[8:1],2,3,4b^1[8:1],5,6,7b^4[8:1],8,1,2b^7[8:1],3,4,5,56,47,38,
1b/2b,,45,7,78,{16}6,5,6,,2,,12,,3,4,{8}3,7,26,15,48,,
78,,54,2,21,{16}3,4,3,,7,,87,,6,5,{8}6,2,73,84,51,,
56,,18,3,34,{16}2,1,2,,6,,56,,7,8,{8}7,3,26,15,48,,
43,,81,6,65,{16}7,8,7,,3,,8,7,6,5,1,2,3,4,{32}8,7,6,5,4,3,2,1,{4}48,
{16}2b/8b,,3,4,3,,8,,17,,6,5,6,,1,,28,,3,4,{8}3,7,78,16,25,,
17,{16}6,5,6,,1,,82,,3,4,3,,8,,71,,6,5,{8}6,2,21,83,74,,
46,{16}7,8,7,,4,,53,,2,1,2,,5,,64,,7,8,{8}7,3,34,52,61,,
{16}1,2,3,4,5,6,7,8,15,4,3,2,1,8,7,6,51,2,3,4,5,6,7,8,{32}15,4,3,2,1,8,7,6,{4}51,
{16}2b/8b,,7,5,6,,2,4,3,,7,5,6,,1,5,3,,8,4,6,,1,5,{8}46,37,28,,
1/7,{16}2,4,3,,7,5,6,,2,4,3,,8,4,6,,1,5,3,,8,4,{8}53,62,7/1,,
3/5,{16}6,2,8,,3,7,1,,5,2,8,,3,7,1,8,2,7,3,6,4,5,4,5,3,6,2,7,1-5[16:1],8,
,,8b-4[16:1],,,2b-5[16:1],,,7b-4[16:1],,,3b-6[16:1],,,8b-4[16:1],,
,,1b-5[16:1],,,7b-4[16:1],,,2b-5[16:1],,,6b-3[16:1],,,1b,,
1q5[8:1],,,7,7,,7,,7p3[8:1],,,2,2,,2,,2q6[8:1],,,8,8,,8,,8w4[8:1],,,,8b,,,,
6q2[8:1],,,4,4,,4,,4p8[8:1],,,5,5,,5,,5q1[8:1],,,3,3,,3,,3,4,5,6,7,8,1,2,
8p4[8:1],,,2,2,,2,,2q6[8:1],,,7,7,,7,,7p3[8:1],,,1,1,,1,,1w5[8:1],,,,1b,,,,
{12}2b-5[12:1],2,2,7b-4[12:1],7,7,1b-5[12:1],1,1,8b-4[12:1],8,8,
3-8[12:1],,3,6-1[12:1],,6,4-8[12:1],,4,5-1[12:1],,5,{1}4b>4[4:7]*<4[4:7],,,,,,E
Re:MASTER
- MASTER譜面のSLIDEの速度の修正を行いました。 -- けもがみ (2026-05-28 12:01:13)
最終更新:2026年10月04日 21:04