EASY
BASIC
(200.0){1},,,,,,
{1}1,
{1}1,
{1}2,
{1}2,
{1}3,
{1}3,
{1}4,
{1}4,
{2}5,5,
{1}5,
{2}6,6,
{1}6,
{2}7,7,
{1}7,
{2}8,8,
{2}1,1b,
{2}8,8,
{1}1/8,
{2}7,7,
{1}7/8,
{2}6,6,
{1}5/6,
{2}5,5,
{2}4/5,4/5,
{1}4h[1:1],,
{1}3h[1:1],,
{2}2,2,
{2}1,1,
{1}8-4[4:3],,
{4}3,3,3,,
{4}4,4,4,,
{4}5,5,5,,
{4}6,6,5/6,,
{4}7,7,7,,
{4}8,8,8,,
{4}1,1,1,,
{4}8,1,8,,
{1}1-4[4:3],,
{4}6,6,6,,
{4}7,7,7,,
{1}8-5[4:3],,
{4}3,3,3,,
{4}2,2,2b,,
{1}1h[1:1],,
{1}2h[1:1],,
{1}3h[1:1],,
{1}4h[1:1],,,
{2}5,5,
{4}5,5,5,,
{2}6,6,
{4}6,6,6,,
{2}7,7,
{2}8,8,
{1}1-5[4:3],,
{1}8-4[4:3],,
{2}1,1,
{2}2,2,
{2}3,3,
{4}4,5,4,,
{2}5,5,
{2}6,6,
{2}7,7,
{4}8,1,8,,
{1}1h[1:1],,
{4}8,8,8,,
{4}7,7,7,,
{1}6h[1:1],,
{4}5,5,5,,
{4}4/5,4/5,4b/5b,,
{4}4,4,4,,
{4}3,3,3,,
{4}2,2,2,,
{4}1,8,1,,
{4}8,8,8,,
{4}7,7,7,,
{4}6,6,6,,
{4}5,4,5,,
{1}6h[2:1],
{1}6h[2:1],
{4}7,7,7,,
{4}8,8,1/8,,
{1}1h[2:1],
{1}1h[2:1],
{4}2,2,2,,
{4}3,3,3/4,,
{1}4h[2:1],
{1}4h[2:1],
{4}5,5,5,,
{4}6,6,5/6,,
{1}7h[2:1],
{1}7h[2:1],
{1}1b/8b,
E
ADVANCED
(200.0){1}4>5[4:5],,
{1}5h[2:1]/6h[2:1],
{1}3h[2:1]/4h[2:1],
{2}6h[2:1],5,
{2}3h[2:1],4b,
{4}2,2,1,,
{4}7,7,8,,
{4}1,1,8,8,
{4}1,8,2/7,,
{4}6,6,5,,
{4}3,3,4,,
{4}5,5,4,4,
{4}5,4,3/6,,
{2}3h[2:1],4,
{4}3,3,4,,
{2}6h[2:1],5,
{4}6,6,5,,
{2}3h[2:1],4,
{4}6,6,5,,
{4}3,4,5,6,
{4}4/5,4/5,3b/6b,,
{4}7,7,8,,
{4}7,7,7/8,,
{4}2,2,1,,
{4}2,2,1/2,,
{4}7,7,7/8,,
{4}2,2,1/2,,
{4}7,8,1,2,
{4}1/8,1/8,2b/7b,,
{2}6h[2:1],5,
{4}6,5,5/6,,
{2}3h[2:1],4,
{4}3,4,3/4,,
{4}2,2,1,1,
{4}8,8,7,7,
{1}1-4[2:1]/8-5[2:1],
{1}3b/6b,
{4}7,7,7/8,7/8,
{4}1/2,1/2,3/8,,
{4}2,2,1/2,1/2,
{4}7/8,7/8,1b/6b,,
{4}3,3,3/4,3/4,
{4}5/6,5/6,4/7,,
{4}6,6,5/6,5/6,
{4}3/4,3/4,2b/5b,,
{1}5-2[2:1]/6-1[2:1],
{1}3-8[2:1]/4-7[2:1],
{4}1,1,8,8,
{4}1,8,2b/7b,,
{1}1-6[2:1]/2-5[2:1],
{1}7-4[2:1]/8-3[2:1],
{4}5,5,4,4,
{4}5,4,3b/6b,,
{1}5-1[2:1],
{2}2h[2:1],1,
{1}8-4[2:1],
{2}3h[2:1],4b,
{1}4-8[2:1],
{2}7h[2:1],8,
{1}1-5[2:1],
{2}6h[2:1],5b,
{1}4h[2:1]/5h[2:1],
{2}6h[2:1],5,
{4}6,5,5/6,,
{2}3h[2:1],4,
{4}3,4,3/4,,
{4}2,2,1,1,
{4}8,8,7,7,
{1}1-4[2:1]/8-5[2:1],
{1}3h[2:1]/6h[2:1],
{1}4-1[2:1]/5-8[2:1],
{1}2b/7b,
{2}6h[2:1],5h[2:1],
{2}4h[2:1],3,
{2}3h[2:1],4,
{4}3,3,3/4,,
{2}2h[2:1],1h[2:1],
{2}8h[2:1],7,
{2}7h[2:1],8,
{4}7,7,7/8,,
{1}6-3[2:1],
{1}2-7[2:1],
{4}6,6,5,,
{4}3,3,4,,
{1}3-6[2:1],
{1}7-2[2:1],
{4}3,4,5,6,
{4}4/5,4/5,3b/6b,,
{4}2,1/2,2,1/2,
{4}7/8,7/8,1/2,,
{4}7,7/8,7,7/8,
{4}1/2,1/2,7b/8b,,
{4}6,5/6,6,5/6,
{4}3/4,3/4,5/6,,
{4}3,3/4,3,3/4,
{4}5/6,5/6,3b/4b,,
{1}3-8[2:1]/4-7[2:1],
{1}5-2[2:1]/6-1[2:1],
{4}7,8,2,1,
{4}8,1,2b/7b,,
{1}7-4[2:1]/8-3[2:1],
{1}1-6[2:1]/2-5[2:1],
{4}3,4,6,5,
{4}4,5,3b/6b,,
{1}4-1[2:1]/5-8[2:1],
{1}1-4[2:1]/8-5[2:1],
{4}6,5/6,3,3/4,
{4}4/5,3/6,2b/7b,,
{1}1-4[2:1]/8-5[2:1],
{1}4-1[2:1]/5-8[2:1],
{2}2h[2:3]/7h[2:3],{1},,
E
EXPERT
(200.0){2}3/4,5/6,
{4}4h[2:1]/5h[2:1],,,3/6,
{2}2h[2:1],3h[2:1],
{2}4h[2:1],5,
{2}7h[2:1],6h[2:1],
{2}5,3/6,
{4}5,6,7/8,6,
{4}4,4,5,5,
{4}4,3,1/2,3,
{4}5,4,3/4,2/5,
{4}4,3,1/2,3,
{4}5,5,4,4,
{4}6,7,1/8,2,
{4}1,8,1/8,2/7,
{1}3h[2:1]/4h[2:1],
{1}2^4[16:5],
{1}5h[2:1]/6h[2:1],
{1}7^5[16:5],
{2}4/5,3,
{2}4/5,6,
{4}4/5,3,2,1,
{1}7-4[8:3]/8-3[8:3],
{8}5,,3,,1/2,,8,8,
{8},7,,6/8,,,,,
{8}4,,6,,7/8,,1,1,
{8},2,,1/3,,,,,
{8}2,,8,,5/7,,6,6^3[8:3],{1},
{4}3,4,6,5,
{4}3h[4:1],4,2/5,,
{1}3^6[8:3],
{4}7/8,1,1/2,8,
{1}7p2[8:3],
{4}1,2,3,4,
{4}6h[4:1],5,3h[4:1],4,
{4}7h[4:1],5,2h[4:1],4,
{4}7-2[4:1],,,1/8,{1},
{8}2b/8b,,1/7,,2,,3,3,
{8},5/6,5/6,,7,,6/8,,
{4}3,1/2,6,7/8,
{4}5/7,3/5,5/7,,
{8}7h[4:1]/8h[4:1],,,,1/6,,5,5,
{8},3/4,3/4,,2,,1/3,,
{4}6,7/8,3,1/2,
{4}2/4,5/6,2/4,2,
{4}2h[4:3],1,8,7,
{4}7h[4:3],8,1,2,
{4}3,2/4,6,5/7,
{4}6h[4:1],3,1/2,3/8,
{4}2h[4:3],1,8,7,
{4}7h[4:3],8,1,2,
{4}3h[4:1],6,5/6,4h[2:1],
{2}8h[4:1],2b/6b,
{1}2^7[2:1],
{4}5,4,4,5,
{1}7^2[2:1],
{1}4w8[8:3],
{1}6^3[2:1],
{4}1,8,8,1,
{1}3^6[2:1],
{4}7,6,{2}4h[1999:833]/5h[1999:833],{1},
{1}6^3[8:3],
{4}2,1,8,1,
{1}2q7[8:3],
{4}8,7,6,5,
{4}3h[4:1],4,6h[4:1],5,
{4}2h[4:1],4,7h[4:1],5,
{4}2-7[4:1],,,1h[4:3]/8h[4:3],{1},
{4}6-3[4:1]/7-2[4:1],,,1/8,{1},
{4}4/5,5,6,6,
{1}7^5[4:1],
{4}4/5,4,3,3,
{2}3h[4:1]/4h[2:1],3,
{2}4h[4:1]/5h[4:1],3/6,
{1}2^4[4:1],
{4}4/5,5,6,6,
{4}5,6,4/7,,
{4}3/4,4,5,5,
{4}5/6,5,4,4,
{4}3,3/4,6,6/5^3[4:1],
{4},,3/4,2/5,
{4}3/4,4,5,5,
{4}5/6,5,4,4,
{4}3h[4:1],4,6h[4:1],1h[4:3],
{4}8h[2:1],,,1/8,
{8}7b/8b,,1/2,,5/7,,6,6,
{8},2/4,2/4,,1,,2/8,,
{4}5,6/8,4,1/3,
{4}3/6,6/8,3b/6b,,
{8}2,,1/2,,3/8,,4,4,
{8},5/7,5/7,,8,,1/7,,
{4}4,1/3,5,6/8,
{4}4/6,1/3,4/6,7,
{4}7h[4:3],8,1,2,
{4}2h[4:3],1,8,7,
{4}5/6,4/7,3/4,2/5,
{4}3h[4:1],6,7/8,1/6,
{4}7h[4:3],8,1,2,
{4}2h[4:3],1,8,7,
{4}6h[4:1],3,3/4,5h[2:1],
{4}1h[4:1],,3b/7b,1,
{4}6h[4:3],8,1,2,
{4}3h[4:3],1,8,7,
{4}5/6,4/7,3/4,2/5,
{4}4h[4:1],7,1/8,2/7,
{4}6h[4:3],8,1,2,
{4}3h[4:3],1,8,7,
{1}1h[4:5]/5h[4:5],
{2},3/7,
E
MASTER
(200.0){6}1h[6:1],8h[6:1],7h[6:1],6h[6:1],5h[6:1],4h[6:1],
{12}3h[6:1],,2h[6:1],,1h[6:1],,8,,,2/7,,,
{8}6-3[8:1],,2,2-7[8:1],,6,6,,
{8}3-6[8:1],,7,7-2[8:1],,3,3,,
{4}7-4[8:1],2-5[8:1],8-4[8:1],1-5[8:1],
{4}8,8,2/7,4/5,
{8}6,5,7,3,4,2,8,1,
{4}8-5[8:1],4-1[8:1],7-4[8:1],1,
{8}3,4,2,6,5,7,1,8,
{4}1-4[8:1],5-8[8:1],2-5[8:1],8,
{8}6,5,7,3,4,2,8,1,
{4}8-5[8:1],4-1[8:1],7-4[8:1],1,
{8}3,4,2,6,5,7,1,8,
{4}1-4[8:1],5-8[8:1],2,3/6,
{2}8h[1:2],4,
{2}5,4,
{2}1h[1:2],5,
{2}4,5,
{8}8,8h[8:7],,,4,,,,
{8}1,1h[8:7],,,5,,,,
{8}8,8,,,4,5,4/5,,
{8}4/6,4/6,,3/5,,4/6,4/6,,
{8}7-4[8:1],,3,3,8-4[8:1],,2,2,
{8}7-4[8:1],,3,3,8-4[8:1],,1,1,
{8}2-5[8:1],,6,6,1-5[8:1],,7,7,
{8}2-5[8:1],,6,6,1-5[8:1],,8,8,
{8}7-4[8:1],,2,2,8-4[8:1],,1,1,
{8}2-5[8:1],,6,6,1-5[8:1],,7,,
{4}8-4[8:1],1-5[8:1],7-3[8:1],2-6[8:1],
{4}8,8,2/7,4/5,
{8}6q3[4:1],,,,,,3/4,3/4,
{8},3/4,3/4,,2/5,,2/5,,
{8}3p6[4:1],,,,,,5/6,5/6,
{8},5/6,5/6,,4/7,,4/7,,
{4}2,3-6[8:1],8,8,
{4}7,6-3[8:1],1,1,
{8}2/4,,,5/7,,,1/8,,
{8},,,,1,1,7-3[8:1],,
{8}2-6[8:1],,7,,8-5[8:1],,1,1,
{8},3,4/2-5[8:1],,7-4[8:1],,2,,
{8}1^4[8:1]/5^8[8:1],,,,3/7,,2/6,2/6,
{8},3,4,5,6,,2-6[8:1],,
{8}7-3[8:1],,2,,1-4[8:1],,8,8,
{8},6,5/7-4[8:1],,2-5[8:1],,7,,
{8}4^1[8:1]/8^5[8:1],,,,2/6,,3/7,3/7,
{8},6,5,4,3,,3-6[8:1],,
{4}7-2[8:1],4-1[8:1],8-5[8:1],3-6[8:1],
{4}7-2[8:1],4-1[8:1],8,8,
{4}2^7[8:1],5,6^3[8:1],1,
{4}2^7[8:1],5,4/5,6-3[8:1],
{4}2-7[8:1],5-8[8:1],1-4[8:1],6-3[8:1],
{4}2-7[8:1],5-8[8:1],1,1,
{4}7^2[8:1],4,3^6[8:1],8,
{4}1-5[8:1]/8-4[8:1],,2b/7b,4/5,
{2}4/5h[1:1],8,
{2}4h[1:1],1,
{2}5h[1:1],8,
{4}4,3/6,2/7,,
{2}5/4h[1:1],1,
{2}5h[1:1],8,
{2}4h[1:1],1,
{4}5,,1/8,2/7,{1},
{4}5/6<4[4:5],5,5,5,
{4}5,5,5,4/7,
{4}4/3>5[4:5],4,4,4,
{4}4,4,4,2/5,
{4}7,6-3[8:1],1,1,
{4}2,3-6[8:1],8,8,
{8}5/7,,,2/4,,,{4}1h[1:1]/8h[1:1],{1},
{8}2/4,,,5/7,,,{4}1h[1:1]/8h[1:1],{1},
{4}5/4h[4:3],5,5,5,
{4}5/6h[4:3],5,5,5,
{4}5/4h[4:1],5,5/6h[4:1],5,
{4}5,5,4/6,5,
{4}4/5h[4:3],4,4,4,
{4}4/3h[4:3],4,4,4,
{4}4/5h[4:1],4,4/3h[4:1],4,
{4}4,4,3/5,5/4h[4:1],
{4}3h[4:1],2h[4:1],1h[4:1],8h[4:1],
{4}7h[4:1],6h[4:1],5h[4:1],4,
{2}5/4^1[8:1],4/5^8[8:1],
{4}5/4^1[8:1],,4/5,4/5h[4:1],
{4}6h[4:1],7h[4:1],8h[4:1],1h[4:1],
{4}2h[4:1],3h[4:1],4h[4:1],5,
{2}4/5^8[8:1],5/4^1[8:1],
{4}4/5^8[8:1],,4/5,7/2-6[8:1],
{8}7-3[8:1],,2,,4-1[8:1],,8,8,
{8},5,4/6-1[8:1],,2-6[8:1],,7,,
{8}4^1[8:1]/8^5[8:1],,,,2/6,,3/7,3/7,
{8},6,5,4,3,,7-3[8:1],,
{8}2-6[8:1],,7,,5-8[8:1],,1,1,
{8},4,5/3-8[8:1],,7-3[8:1],,2,,
{8}1^4[8:1]/5^8[8:1],,,,3/7,,2/6,2/6,
{8},3,4,5,6,,6-3[8:1],,
{4}2-7[8:1],5-8[8:1],1-4[8:1],6-3[8:1],
{4}2-7[8:1],5-8[8:1],1,1,
{4}7^2[8:1],4,3^6[8:1],8,
{4}7^2[8:1],4,4/5,3-6[8:1],
{4}7-2[8:1],4-1[8:1],8-5[8:1],3-6[8:1],
{4}7-2[8:1],4-1[8:1],8,8,
{4}2^7[8:1],5,6^3[8:1],1,
{4}1-5[8:1]/8-4[8:1],,2/7,3-6[8:1],
{4}7-2[8:1],4-1[8:1],8^5[8:1],3-6[8:1],
{4}7-2[8:1],4^1[8:1],8,8,
{4}2^7[8:1],5,6^3[8:1],1,
{4}2^7[8:1],5,4/5,6-3[8:1],
{4}2-7[8:1],5-8[8:1],1^4[8:1],6-3[8:1],
{4}2-7[8:1],5^8[8:1],1,1,
{1}8h[4:3],
{2}1-5[8:1]/8-4[8:1],2/7,
E
Re:MASTER
(200){6}7h[6:1],5h[6:1],6,2h[6:1],4h[6:1],3,45,36,27,1p4[12:1]/8
{8},,,,6,,57,5h[4:1]/7h[4:1],,,25,,3,,24,2h[4:1]/4h[4:1],,,47,,
2,3,4,6,5,4,5,6,47,,,25,,,1b/8b,,
2,,13,,3,4,2,,13,8,7,6,5-1[8:1],,5,,
7,,68,,6,5,7,,68,1,2,3,4-1[8:1],,4,,
2,,13,,3,4,2,,13,8,7,6,5-1[8:1],,5,,
36,,57,57,,24,24,,
{16}36,,1,8,1,,27
{8},3,3,8b,,8b,,,
4,4,,6,6h[2:1],,5,,5,,
4,4,,3h[2:1],,,4,4,,6,6h[2:1],,5,,5,,,
45,,3,2h[4:3]/4,,,,,,4,
6,7h[4:3]/5,,,,,,5,
18,18,,{16}3,4,3,,
{8}5,6,,27,27,,56,,34,2b/7b,,45,,
7,7-4[8:1],8,,2,2-5[8:1],1,,7,7-4[8:1],8,,3,3-8[8:1],4,,6,6-1[8:1],5,,
3,24,,45,,57,,2,2,,45,,
7,7-4[8:1],8,,2,13,,18,,68,,3,3,,
6,5,8,,3,4,1,,34,34,,56,47,,1b/2b,,
3>6[3:1]/4q5[3:1],,,,,,,
45,,4,4h[4:1],,5,,34,,6<3[3:1]/5p4[3:1],,,,,,,
34,,5,5h[4:1],,4,,56,,
3,,24,,6,,57,,34,,24,,56,,7/5<4[2:1],,7-2[4:1],,,,,,3b/6b,,,,,,
{16}5,4,5,,{8}36,,1-3[8:1]/8-4[8:1],,18,,5,,8<5[8:1],8,,3,4,2,18,,56,,
4/7-4[8:1],,8,,5/2-5[8:1],,7,7h[4:1],,8,8,,5b/2bq7[4:1],,7p2[4:1],,,,
8-3[8:1]*-5[8:1],,,,6,6h[4:1],,3,4,2,18,,45,,4/6-1[8:1],,3,,5/2-7[8:1],,4,4h[4:1],,3,3,,1b/6b,,
{4}8<5[8:1],8>3[8:1],8-5[8:1],8-3[8:1],8-4[8:1],8>3[8:1],8<5[8:1],8-4[8:1],8,
{8}7,,68,,2,,13,1/3h[4:1],,8,8,,26,,
{4}5/1>4[8:1],1<6[8:1],1-4[8:1],1-6[8:1],1-5[8:1],1<6[8:1],1>4[8:1],1-5[8:1],1,
{8}2h[4:1],,1,,24,,5V74[4:1],8-3[8:1],,,,,2b/6b,,56,,
5/6h[4:1],5,5,,7,74,,3,4/3-6[8:1],,5,,7,,56,,
4/3h[4:1],4,4,,2,25,,6,56,,4w8[4:1],,,,,,
4/3h[4:1],4,4,,2,25,,6,5/6-4[8:1],,2-6[8:1],,7,,45,,
5/6h[4:1],5,5,,7,74,,3,34,,5<4[2:1],,,,,,,,,,,,,,
5q2[4:1]/6<1[4:1],,,,,,,34,,5,5h[4:1],,4,,56,,3>8[4:1]/4p7[4:1],,,,,,,56,,4,4h[4:1],,5,,34,,
6,,57,,3,,24,,56,,57,,34,,2/4>5[2:1],,2-7[4:1],,,,,,3b/6b,,,,,,,,5<4[2:1],,7b-2[4:1],,,,,,2b/6b,,,,,,,,,,
5/3h[4:6],,5,,7,,7,,4,,5,,6,,45,,4/6h[4:3],,4,,3,,3,,2-4[8:1]/7-5[8:1],,,,36,,6>3[4:1],,3<6[4:1],,,,
3,,27,,7h[2:1],,5,,5,,45,,2h[2:1],,4,,6,,4,,4-2[8:1]/5-7[8:1],,,,
36,,6,,6h[4:7]/5,,7,,8,,1,,2,,3,,4,,5,,3,,24,,6,,57,5/7h[8:3],,4,4,,56,,24,,4/3h[4:7],,2,,1,,8,,7,,6,,5,,4,,3,,24,,6,,57,5/7h[8:3],,2,2,,1b/8b,,45,,
7-5[8:1]/8-4[8:1],,78,,2/1q5[8:1],,3,3h[4:1],,6,5,7,18,,56,,7/1>4[8:1],,5,,6/5p1[8:1],,7,7h[4:1],,8,8,,2b/5b,,6<3[4:1],,3>6[4:1],,,,2h[4:1],,7,7h[4:1],,3,4,2,18,,56,,3/5-8[8:1],,1,,2/1q6[8:1],,3,3h[4:1],,4,4,,1b/7b,,
{4}1/8<5[8:1],8>3[8:1],8-5[8:1],8-3[8:1],8-4[8:1],8>3[8:1],8<5[8:1],8-4[8:1],8,
{8}7,,68,,2,,13,1/3h[4:1],,8,8,,26,,
{4}5/1>4[8:1],1<6[8:1],1-4[8:1],1-6[8:1],1-5[8:1],1<6[8:1],1>4[8:1],1-5[8:1],1,
{8}2,,13,,7,,68,6/8h[4:1],,1,1,,35,,
{4}1/7-5[8:1],7-4[8:1],7-3[8:1],7-2[8:1],7-1[8:1],7-2[8:1],7-3[8:1],7-4[8:1],7,
{8}56,,58,,34,,14,4/1h[4:1],,5,5,,34,,
{4}8/2-4[8:1],2-5[8:1],2-6[8:1],2-7[8:1],2-8[8:1],2-7[8:1],2-6[8:1],2-5[8:1],2,
3h[8:11]/6h[8:11],,,,,,36,
E
最終更新:2026年10月01日 21:16