EASY
BASIC
(210.0){1},,,,,,,,,
{2}4,4,
{2}3,3,
{2}2,2,
{1}1/8,
{2}8,8,
{2}7,7,
{2}6,6,
{1}4/5,
{1}4h[1:1],,
{2}3,3,
{2}2,2,
{1}2h[1:1],,
{2}2,2,
{1}1/8,
{4}8,8,8,,
{4}7,7,7,,
{4}6,6,6,,
{4}5,5,5,,
{4}4,4,4,,
{4}3,3,3,,
{4}2,2,2,,
{4}1,1,1,,
{1}1-5[4:3],,
{2}6,6,
{2}7,7,
{1}8-4[4:3],,
{2}3,3,
{2}2,2,
{1}1b/8b,,
{4}1,1,1,1,
{4}2,2,2,,
{4}3,3,4,4,
{4}5,5,4/5,,
{4}5,5,5,5,
{4}6,6,6,,
{4}7,7,8,8,
{1}1h[2:1]/8h[2:1],
{4}8,8,8,8,
{4}7,7,7,,
{4}6,6,5,5,
{4}4,4,4/5,,
{4}4,4,4,4,
{4}3,3,3,,
{4}2,2,1,1,
{1}1/8,
{1}1-4[4:3],,
{1}8-5[4:3],,
{1}4-1[4:3],,
{1}5-8[4:3],,
{1}1,
{1}1,
{1}2,
{1}2,
{1}3,
{1}3,
{2}4,5,
{1}4/5,
{2}5,5,
{1}5,
{2}6,6,
{1}5/6,
{2}7,7,
{1}7,
{2}8,1,
{1}1b/8b,
{4}8,8,8,8,
{4}7,7,7,,
{4}6,6,5,5,
{4}4,5,4,,
{4}4,4,4,4,
{4}3,3,3,,
{4}2,2,1,1,
{4}8,1,8,,
{1}1-4[4:3],,
{1}8-5[4:3],,
{1}1-5[4:3],,
{1}8-4[4:3],,
{4}1,1,1,1,
{4}2,2,2,,
{4}3,3,4,4,
{4}5,4,4/5,,
{4}5,5,5,5,
{4}6,6,6,,
{4}7,7,8,8,
{4}1,8,1/8,,
{1}1h[1:1],,
{1}2h[1:1],,
{1}3h[1:1],,
{1}4h[1:1]/5h[1:1],,
E
ADVANCED
(210.0){1},
{2}3h[2:1],4h[2:1],
{2}5h[2:1],6,
{2}6h[2:1],5h[2:1],
{2}4h[2:1],3,
{2}2h[2:1],3h[2:1],
{2}4h[2:1],5,
{2}6h[2:1],5h[2:1],
{2}4h[2:1],3,
{4}1,1,2,2,
{4}3,3,3/4,,
{4}8,8,7,7,
{4}6,6,5/6,,
{4}2,2,3,3,
{4}4,4,5/6,,
{4}7,7,6,6,
{4}5,5,3/4,,
{4}4,4,3,3,
{4}4,3,2/5,,
{4}5,5,6,6,
{4}5,6,4/7,,
{4}8,8,1,1,
{4}8,1,2/7,,
{1}7-4[4:1]/8-3[4:1],
{1}1-6[4:1]/2-5[4:1],
{4}1,1,2,2,
{4}1,2,3/8,,
{4}8,8,7,7,
{4}8,7,1/6,,
{4}5,5,4,4,
{4}5,4,3/6,,
{1}5-2[4:1]/6-1[4:1],
{1}3-8[4:1]/4-7[4:1],
{2}3h[2:1],4,
{2}6h[2:1],5,
{2}2h[2:1],3,
{2}7h[2:1],6,
{2}2h[2:1],1,
{2}7h[2:1],8,
{2}1h[2:1],8,
{4}8,1,2/7,,
{1}1pp4[4:5]/8qq5[4:5],,
{4}5b,5b,6,7,
{4}8,1,2/8,,
{4}8,7,6,5,
{4}3/4,3/4,2/5,,
{4}4b,4b,3,2,
{4}1,8,1/7,,
{4}1,2,3,4,
{4}5/6,5/6,4/7,,
{4}1,2,3,4,
{4}5,6,7/8,7/8,
{1}7-4[4:1]/8-3[4:1],
{1}1-6[4:1]/2-5[4:1],
{4}8,7,6,5,
{4}4,3,1/2,1/2,
{1}1-6[4:1]/2-5[4:1],
{1}7-4[4:1]/8-3[4:1],
{2}3h[2:1],4h[2:1],
{2}5h[2:1],6,
{2}6h[2:1],5h[2:1],
{2}4h[2:1],3,
{2}2h[2:1],3h[2:1],
{2}4h[2:1],5,
{2}7h[2:1],6h[2:1],
{2}5h[2:1],4,
{1}3h[2:1]/4h[2:1],
{2}3,4,
{1}5h[2:1]/6h[2:1],
{2}6,5,
{1}1h[2:1]/2h[2:1],
{2}2,1,
{1}7h[2:1]/8h[2:1],
{2}7,8,
{1}3h[2:1]/4h[2:1],
{4}3,3,4,,
{1}5h[2:1]/6h[2:1],
{4}6,6,5,,
{1}1h[2:1]/2h[2:1],
{4}2,2,1,,
{1}7h[2:1]/8h[2:1],
{4}7,7,8,,
{4}1b,1b,2,3,
{4}4,5,6,7/8,
{4}6,5,4,3,
{4}1/2,1/8,7/8,,
{4}8b,8b,7,6,
{4}5,4,3,1/2,
{4}3,4,5,6,
{4}7/8,1/8,1/2,,
{4}5,6,7,8,
{4}1/2,1/2,3/8,3/8,
{4}4,3,2,1,
{1}7-4[4:1]/8-3[4:1],
{4}4,3,2,1,
{4}7/8,7/8,1/6,1/6,
{4}5,6,7,8,
{1}1-6[4:1]/2-5[4:1],
{4}1,2,3,4,
{4}5/6,5/6,4/7,4/7,
{4}8,7,6,5,
{1}3-8[4:1]/4-7[4:1],
{4}8,7,6,5,
{4}3/4,3/4,2/5,2/5,
{4}1,2,3,4,
{1}5-2[4:1]/6-1[4:1],
{1}2h[1:1],
{1}1h[1:1],
{1}8h[1:1],
{1}7,
{1}6h[1:1],
{1}5h[1:1],
{1}4h[1:1],
{1}3,
E
EXPERT
(210.0){1},
{2}8,2/4,
{2}1,5/7,
{2}5,1/3,
{2}4,6/8,
{2}2-4[4:1],6,
{2}7-5[4:1],3,
{2}3-5[4:1],7,
{2}6-4[4:1],2,
{4}3h[4:1],4,2/5,,
{4}6h[4:1],5,4/7,,
{4}2h[4:1],1,3/8,,
{4}7h[4:1],8,1/6,,
{4}3h[4:1],4,1/6,,
{4}6h[4:1],5,3/8,,
{4}2h[4:1],1,4/7,,
{4}7h[4:1],8,2/5,,
{1}1/2^5[2:1],
{4}6/8,7,6/8,,
{1}8/7^4[2:1],
{4}1/3,2,1/3,,
{1}6/5^2[2:1],
{4}1/7,8,1/7,,
{1}3/4^7[2:1],
{4}2/8,1,2/8,,
{8}3,,4,4,,,5/7,,
{8}6,,5,5,,,2/4,,
{8}2,,1,1,,,6/8,,
{8}7,,8,8,,,1/3,,
{8}6h[4:1],,5,5,,,2/4,,
{8}3h[4:1],,4,4,,,5/7,,
{8}7h[4:1],,8,8,,,1/3,,
{8}2h[4:1],,1,1,,,6/8,,
{4}7/1h[4:5],,6,6,
{4}7,7,4/6,3/5,
{4}2/8h[4:5],,3,3,
{4}2,2,3/5,4/6,
{4}7/1h[1:1],,6,6,
{4}7,8h[4:1],1h[4:1],8h[1:2],
{4}2,,2,2,
{4}3,3,4,4,
{8}1/8,,,6/7,,,4/5,,
{8},2/3,,,1b/8b,,,,
{4}2/8,1/7,5,4/6,
{8}1/3,,2/8,2/8,,,1/5,,
{4}4/6,3/5,5/7,2/4,
{8}6,,2/8,2/8,,,3/5,,
{4}1/7,2/8,4,3/5,
{8}6/8,,1/7,1/7,,,4/8,,
{4}3/5,4/6,2/4,5/7,
{8}3,,1/7,1/7,,,4b/6b,,
{4}3h[4:1],4h[4:1],5h[4:1],6h[4:1],
{4}5h[4:1],4h[4:1],3,3/5,
{4}5h[8:11],7,7,1,
{8}1,,3,3,,,1b/7b,,
{4}6h[4:1],5h[4:1],4h[4:1],3h[4:1],
{4}4h[4:1],5h[4:1],6,4/6,
{4}4h[8:11],2,2,8,
{8}8,,6,6,,,2b/8b,,
{8}6h[8:3],,,5h[8:3],,,4,,
{4},3/5,2/4,1/3,
{8}3h[8:3],,,4h[8:3],,,5,,
{4},4/6,5/7,6/8,
{8}6h[8:3],,,5h[8:3],,,4,,
{4}4,3/5,2/4,1/3,
{8}3h[8:3],,,4h[8:3],,,5,,
{4}5,4/6,5/7,6b/8b,
{4}3,3,4,4,
{8}5,,6,6,,,,,
{4}6,6,5,5,
{8}4,,3,3,,,,,
{4}4,4,5,5,
{8}6,,7,7,,,,,
{4}5,5,4,4,
{2}3h[4:1],2/4,
{8}3,,3,,5,4,5,,
{8}6,,7,7,,,,,
{8}6,,6,,4,5,4,,
{8}3,,2,2,,,,,
{8}2,,2,,8,1,8,,
{8}7,,6,6,,,,,
{8}7,,7,,1,8,1,,
{2}2h[2:1],8b,
{8}2/8,,1/7,,5,5,4,,
{8}1/3,,2/8,2/8,,,1/5,,
{4}4/6,3/5,5/7,2/4,
{8}6,,2/8,2/8,,,3b/5b,,
{8}1/7,,2/8,,4,4,5,,
{8}6/8,,1/7,1/7,,,4/8,,
{4}3/5,4/6,2/4,5/7,
{8}3,,1/7,1/7,,,4b/6b,,
{4}7h[4:1],5h[4:1],4h[4:1],2h[4:1],
{4}4h[4:1],5h[4:1],6,4/6,
{8}4h[8:11],,2,2,2,,8,8,
{8}8,,6,6,,,2b/8b,,
{4}2h[4:1],4h[4:1],5h[4:1],7h[4:1],
{4}5h[4:1],4h[4:1],3,3/5,
{8}5h[8:11],,7,7,7,,1,1,
{8}1,,3,3,,,1b/7b,,
{4}7h[4:1],8h[4:1],1h[4:1],2h[4:1],
{4}1h[4:1],8h[4:1],7,1/7,
{8}1h[8:11],,3,3,3,,5,5,
{8}5,,7,7,,,3b/5b,,
{4}2h[4:1],1h[4:1],8h[4:1],7h[4:1],
{4}8h[4:1],1h[4:1],2,2/8,
{8}8h[8:11],,6,6,6,,4,4,
{8}4,,2,2,,,,,
{4}2,2^4[4:1],,,
{4}6,5,5/6,,
{4}7,7^5[4:1],,,
{4}3,4,3/4,,
{4}3,3^5[4:1],,,
{4}6,5,5/6,,
{4}6,6^4[4:1],,,
{8}3,,4,4,
E
MASTER
(210){8}
1,,2,,3/4h[8:5],,,,,5,5,,46,,,,
8,,7,,6/5h[8:5],,,,,4,4,,46,,,,
1,,3,,2/4h[8:5],,,,,6,6,,57,,,,
8,,6,,7/5h[8:5],,,,,3,3,,24,,,,
{2}
1-5[8:1],7-4[8:1],8pp3[2:1],,
8-4[8:1],2-5[8:1],1qq6[2:1],,
1-5[8:1],7-4[8:1],8pp3[2:1],,
4-8[8:1],5-1[8:1],3pp6[2:1],,
{8}
2,,13,,3,4,2,,6,5,7,,3,4,15,,
7,,68,,6,5,7,,2,2,4,4,8-4[8:1],,8,,
7,,68,,6,5,7,,3,4,2,,6,5,48,,
2,,13,,3,4,2,,7,7,5,5,1-5[8:1],,1,,
47,,12,,8,1,7,,7-3[8:1],8-4[8:1],7,8,,,16,,
25,,78,,1,8,3,,2-6[8:1],1-5[8:1],2,1,,,16,,
47,,12,,8,1,6,,7-3[8:1],8-4[8:1],7,8,,,16,,
2-5[8:1]/6-1[8:1],,26,,48,37,26,,2v4[8:1],6v8[8:1],2,6,,,,,
3h[2:1],,,4,4,,25,,6,5,6,,47,,,,
6h[2:1],,,5,5,,47,,3,4,3,,25,,,,
2h[2:1],,,4,4,,16,,7,5,7,,48,,,,
7h[2:1],,,5,5,,38,,2,4,2,,15,,,
2-6[8:1],2,,8-4[8:1],8,,3-8[8:1],3,,5-1[8:1],5,,8,8,,2b/7b,,
1-6[8:1]/2-5[8:1],,12,,
7,8,5,4,1,2,1,2>5[8:1],,,1,,
6,5,7,7,3,4,25,1,8,3<6[8:1],7,3,,,1b/5b,,
7-4[8:1]/8-3[8:1],,78,,
2,1,4,5,8,7,8,7<4[8:1],,,8,,
3,4,2,2,6,5,47,8,1,6>3[8:1],2,6,,,4b/8b,,
{4}1-5[8:1],8-4[8:1],2>5[8:1],7,1-6[8:1]/2-5[8:1],12,7-4[8:1]/8-3[8:1],78,
{8}2,1,4,5,8,7,16,,7<4[8:1]/8>3[8:1],,78,,,,27,,
{4}8-4[8:1],1-5[8:1],7<4[8:1],2,8-3[8:1]/7-4[8:1],78,1-6[8:1]/2-5[8:1],12,
{8}
7,8,5,4,1,2,38,,1<6[8:1]/2>5[8:1],,12,,,,2b/7b,,
3h[4:1],,4,4h[4:1],,5,5h[4:1],,6,6h[4:1],,7,7-4[8:1],,7,,
6h[4:1],,5,5h[4:1],,4,4h[4:1],,3,3h[4:1],,2,2-5[8:1],,2,,
8h[4:1],,1,1h[4:1],,2,2h[4:1],,3,3h[4:1],,4,4-8[8:1],,4,,
1h[4:1],,8,8h[4:1],,7,7h[4:1],,6,6h[4:1],,5,5-1[8:1],,5,,
{2}3p7[2:1],7p3[2:1],3>8[2:1],8p4[2:1],4p8[2:1]*<8[2:1],,
{4}1,8,27,,
{2}6q2[2:1],2q6[2:1],6<1[2:1],1q5[2:1],5>1[2:1]*q1[2:1],,
{4}8,1,27,,
{2}2p4[2:1],4p6[2:1],6p8[2:1],8<4[2:1],4<8[2:1]*>8[2:1],,
{8}1,8,1,,27,,,,
{2}7q5[2:1],5q3[2:1],3q1[2:1],1>5[2:1],5<1[2:1]*>1[2:1],,
{8}8,1,8,,2b/7b,,,,
4-7[8:1]/2-5[8:1],,24,,
3,5,4,7,3-7[8:1],6-2[8:1],3,6,,,18,,
2-5[8:1],6-1[8:1],2,6,5>3[8:1],1,5,,1-6[8:1]/2-5[8:1],,12,,78,,2b/5b,,
7-4[8:1]/5-2[8:1],,57,,
6,4,5,2,6-2[8:1],3-7[8:1],6,3,,,18,,
7-4[8:1],3-8[8:1],7,3,4<6[8:1],8,4,,7-4[8:1]/8-3[8:1],,78,,12,,4b/7b,,
{4}4-8[8:1],5-1[8:1],3>8[8:1],6,3-8[8:1]/4-7[8:1],34,5-2[8:1]/6-1[8:1],56,
{8}3,4,1,8,5,6,47,,1<4[4:1]/2p3[4:1],,,,,,36,,
{4}5-1[8:1],4-8[8:1],6<1[8:1],3,5-2[8:1]/6-1[8:1],56,3-8[8:1]/4-7[8:1],34,
{8}6,5,8,1,4,3,25,,8>5[4:1]/7q6[4:1],,,,,,36,,
{4}6-2[8:1],5-1[8:1],7>2[8:1],4,5>2[8:1]/6<1[8:1],56,3>8[8:1]/4<7[8:1],34,
{8}6,5,8,1,4,3,25,,4<1[4:1]/3q2[4:1],,,,,,45,,
{4}3-7[8:1],4-8[8:1],2<7[8:1],5,3>8[8:1]/4<7[8:1],34,5>2[8:1]/6<1[8:1],56,
{8}3,4,2,8,5,6,47,,5>8[4:1]/6p7[4:1],,,,,,,,
1h[4:1]/2h[4:1],,,3h[8:9]/8h[8:9],,,,,,,,,,,,,
7h[4:1]/8h[4:1],,,1h[8:9]/6h[8:9],,,,,,,,,,,,,
3h[4:1]/4h[4:1],,,2h[8:9]/5h[8:9],,,,,,,,,,,,,
8z4[1:1],,,,,,,,,,,,1-5[8:1],
E
Re:MASTER
最終更新:2026年10月01日 21:17