アットウィキロゴ

Virtual to LIVE

アーティスト にじさんじ

BPM BASIC ADVANCED EXPERT MASTER Re:MASTER
156 3 6 8+ 12 12+

EXPERT MASTER Re:MASTER
譜面制作者 ものくろっく 譜面-100号 はっぴー

BASIC


ADVANCED


EXPERT

(156)
{1},,,,4-1[2:1]/5h[1:3],4-1[2:1],4-1[2:1],4-1[2:1],
{2}6,6h[4:5],3,3h[4:1],4^1[2:1]/5^8[2:1],,{4}3/6h[4:3],4,5-1[4:1],,
,,,36,{8}4,4,{4}5,3-8[8:1],,
7x,17,2,28,7h[4:1],5h[4:1],{8}6,6,6,,{4}2,28,7,17,2h[4:1],4h[4:1],{8}3,3,3,,
{4}7,17,2,28,{8}7,7,5,5,{4}6,47,4^2[8:1]/7^5[8:1],,25,25,1p5[4:1]/7h[2:1],,,,
E7,E6,E5,E4,E3,1-5[4:1],,,E7,E6,E5,E4,E3,1-5[4:1],,,
E7,E8,E1,E2,E3,4-8[4:1],,,6,56,3,34,5s1[2:1],,,,
E3,E4,E5,E6,E7,8p4[4:1],,,E3,E4,E5,E6,E7,8p4[4:1],,,
E3,E2,E1,E8,E7,5q1[4:1],,,3,24,6,57,2^4[4:1]/6^4[4:1],,,26,
{8}4h[4:3]/5,,,3,3,,5,,2,2,{4}4^6[4:1],,,{8}4/5h[4:3],,,6,6,,4,,7,7,{4}5^3[4:1],,,
{8}4h[4:3]/5,,,3,3,,5,,2,2,{4}4^6[4:1],,,45,2,45,7,Chf[2:1],,,,
1b/8b,{8}3,4,{4}2-5[8:1],,6,2^5[4:1]/7qq5[4:1],,,
18,{8}6,5,{4}7-4[8:1],,3,2pp4[4:1]/7^4[8:1],,,
{8}3,3,4,,{2}B7/B8/E7,{8}6,6,5,,{2}B1/B2/E3,{4}E5,E4/E6,E3/E7,18,2b/7b,,1,1,
7b/8b,{8}6,5,{4}7-4[8:1],,35,4q1[4:1]*^7[4:1],,,
12,{8}3,4,{4}2-5[8:1],,46,5p8[4:1]*^2[4:1],,,
{8}6,6,5,,{2}B1/B2/E1/E3,{8}3,3,4,,{2}B7/B8/E1/E7,
{8}5h[2:1]/7,,4,4,{4}4,27,1/6h[4:3],3,5-1[8:1],,
7x,12,3,78,6h[4:1],2h[4:1],{8}4,4,4,,{4}3,78,6,12,3h[4:1],7h[4:1],{8}5,5,5,,
{4}6,12,3,78,{8}6,6,2,2,{4}4,36,3^5[8:1]/6^8[8:1],,58,58,Cf,,1h[4:1]/8h[4:1],,
2b/4h[2:3],8,2,8,2,8,2,18,5h[2:3]/7b,1,7,1,7,1,7,18,
3b/4b,2^7[4:1]/3p6[4:1],,,5b/6b,6q3[4:1]/7^2[4:1],,,
3b/4b,78,5b/6b,12,4hx[4:1]/5hx[4:1],,B5/B6/B7,,
{1}3bv1[4:7]/1b<3[4:7],,,,,,
E

MASTER

(156)
{8}8,1,2,3h[4:1],,1,8,7h[4:1],,1,2,3,7,6,5,,
1,8,7,6h[4:1],,8,1,2h[4:1],,8,7,6,25,,47,,
2h[4:1]/4b,,5,6,5/7h[4:1],,4,3,2h[8:1]/4,6,5/7h[8:1],3,2h[4:1]/4h[4:1],,,6,
5/7h[4:1],,4,3,2h[4:1]/4,,4,6,5/7h[8:1],3,2h[8:1]/4,6,5h[4:1]/7h[4:1],,,1,
1,2,2,3,3p6[8:1],,,8,8,7,7,6,{2}6q3[8:1],
4^1[8:1]/8^5[8:1],1^4[8:1]/5^8[8:1],{4}13,68,3v1[8:1]/1<3[8:1],Cf,
{1},{8}18,18,1pp4[4:1]/8qq5[4:1],18,1x/8x,,,,
{16}2b/7b,,,3,8,,4,,27,,,6,1,,5,,27,,,3,{8}8,4,E1/E2,C,E5/E6,,
{16}27,,,6,1,,5,,27,,,3,8,,4,,27,,,6,{8}1,5,E1/E8,C,E4/E5,,
{4}46,12,38,{8}1,2,7-4[8:1],8-3[8:1],,,,1,1,,
{2}1^6[8:1]/2^5[8:1],7^4[8:1]/8^3[8:1],Chf[2:1],B2/B3/B6/B7,
{8}18,7,18,2,17,,28,3,17,6,28,,17,,28,3,
12,8,78,1,12,,78,7,18,1,28,8,12,,7,3,
7h[4:1],5,5h[4:1],4,4h[4:1],,2,6,2h[4:1],4,4h[4:1],5,5h[4:1],,7,,
{2}4^2[8:1]/7^5[8:1],2^4[8:1]/5^7[8:1],4>6[2:1]/6p4[2:1],,
{8}24,6,57,3,2h[4:1]/4,,7,8,17,6,28,3,{4}1s5[8:1]/7h[4:1],,
E6,C,E2,E4,E3/E5,E2/E6/C,B7/B8/E7/E1,,
{8}28,1,28,37,46,,8,4,17,8,17,26,35,,46,,
{2}3^6[8:1]/8qq6[8:1],1pp3[8:1]/6^3[8:1],3qq5[4:1]/8pp5[4:1],{4},C,
2h[4:1]/4,B8,5/7h[4:1],B1,24,57,1/3h[4:1],C,
5/7h[4:1],B1,2h[4:1]/4,B8,68,13,5/7h[4:1],C,
3h[4:1]/5,C,4/6h[4:1],C,2h[4:1]/4,B8,5/7h[4:1],B1,
38,24,16,57,Chf[4:1],,,1b/8b,
{16}26,,,7,5,,7,,26,,,7,{8}5,7,15,3,48,6,{2}1-5[8:1],
{16}37,,,2,4,,2,,37,,,2,{8}4,2,48,6,15,3,8-4[8:1],,,1,
1,2,2,3,3p6[8:1],,,8,8,7,7,6,6q3[8:1],,,4,
4-7[8:1],,,5,5-2[8:1],,,1,{4}1w5[8:1],,36,1b/8b,
{16}37,,,2,4,,2,,37,,,2,{8}4,2,48,6,15,3,{2}8-4[8:1],
{16}26,,,7,5,,7,,26,,,7,{8}5,7,15,3,48,6,1-5[8:1],,,8,
8,7,7,6,6q3[8:1],,,1,1,2,2,3,3p6[8:1],,7,7,
7-4[8:1],,,2,{4}2-5[8:1],,13,68,3v1[8:1]/1<3[8:1],,
{16}2,,,6,1,,8,,47,,,3,8,,1,,25,,,6,{8}1,8,E8,E2,E6,E4,
{16}47,,,3,8,,1,,25,,,6,1,,8,,47,,,3,{8}8,1,E2/E8,C,E4/E6,,
{2}4-1[8:1]/5-8[8:1],{16}37,,,5,{8}6,4,35,46,25,47,,18,36,,
{16}13,,,5,6,,7,,68,,,4,3,,2,,{2}1q6[8:1]/2^5[8:1],7^4[8:1]/8p3[8:1],
{4}56,1b/8b,{16}13,,,28,,,17,,58,,,16,,,27,,{2}3^8[8:1]/8^5[8:1],
{4}34,18,{16}68,,,17,,,28,,14,,,38,,,27,,{2}1^4[8:1]/6^1[8:1],
{4}25,47,{16}56,,,47,,,38,,{4}12,56,34,78,
48,26,15,37,2>6[8:1]/8qq6[8:1],,1pp3[8:1]/7<3[8:1],,
{1}3v1[4:7]/1<3[4:11],,,,,,
E

Re:MASTER

(156)
{1},,,
{4},,,4-1[2:1],5h[1:7],,,{1}4-1[2:1],4-1[2:1],4-1[2:1],
4-1[2:1],4-1[2:1],4-1[2:1],{4},{1}1b,
{8}37,,B2/E2,B6/B7,B3/E4,,25,,45,36,27,18,{32}1x,2x,3x,4x,5x,6x,7x,8x,{4}1x,
{16}4/6-1[8:1],,,5,6,,5,,4/6-1[8:1],,,5,6,,5,,4/6-1[8:1],,,5,{8}6,5,46,37,28,,
{16}3-8[8:1]/5,,,4,3,,4,,3-8[8:1]/5,,,4,3,,4,,3-8[8:1]/5,,,4,{8}3,4,35,26,17,,
{16}4/6-1[8:1],,,5,6,,5,,4/6-1[8:1],,,5,6,,5,,4/6-1[8:1],,,5,{8}6,5,46,3,3^8[8:1],,
{4}6,5^8[8:1],3,3v1[2:1]/1<3[2:1],,,,5^8[4:1],
1,1,18,1/8-4[4:1],1,1,14,1/4s8[2:1],1,1,1,18,18,17,16,1V35[2:1]/6,
8,8,8,58,58,48,48,5>1[4:1]/8,8,8,18,1>5[4:1]/8,8,8,8,47,
{8}6h[8:1],4h[8:1],5h[8:1],3h[8:1],{4}6z2[2:1],2,1,1>5[4:1],8h[2:1],,
E7,C,E3,4-8[8:1],4^1[8:1]*^7[8:1],4w8[8:1],4,,
{2}7^4[8:1]/8^3[8:1],1^6[8:1]/2^5[8:1],4^1[8:1]/5^8[8:1],{4}27,4^1[8:1],
5,4^7[8:1],2,17,1bv4[4:1]/7bv4[4:1],,,45,
{8}6pp5[8:3],,,4,4-1[8:1]*-8[8:1],,4b,,6pp5[8:3],,,4,4-1[8:1]*-8[8:1],,4b,,
6pp5[8:3],,,4,{4}4-1[8:1]*-8[8:1],4b,27,36,18,45,
{8}3qq4[8:3],,,5,5-1[8:1]*-8[8:1],,5b,,3qq4[8:3],,,5,5-1[8:1]*-8[8:1],,5b,,
3qq4[8:3],,,5,{4}5-1[8:1]*-8[8:1],5<4[4:1],Cf,,5b-1[8:1]/7h[4:1],5b,
{16}2b/6b,,,1,{8}8-4[8:1],4,8,,1,1>5[8:1],{4}5<1[4:1],1x,5,{8}37,2,
{4}1-3[8:1]/8-4[8:1],{24}1x/8x,Cf,,,,,{4}1-5[8:1]/8-6[8:1],{24}1x/8x,Cf,,,,,
{4}1-3[8:1]/8-4[8:1],{24}1-5[8:1]/8-6[8:1],Cf,,,,,1x/8x,Cf,,,,,{8}17,8,
{2}1^4[8:1]/2^7[8:1],7^2[8:1]/8^5[8:1],1^6[8:1]/8^3[8:1],{4}27,4-1[8:1],
4x/5-8[8:1],4-1[8:1]/5x,4x/5-8[8:1],4>5[4:1]/5x,4b/Cf,,5b-1[8:1]/7h[4:1],5b,
{16}2b/6b,,,5,{8}4-8[8:1],8,4,,5,5<1[8:1],{4}1>5[4:1],5x,1,{8}37,6,
{4}4-2[8:1]/5-1[8:1],4x/5x,4-8[8:1]/5-7[8:1],4x/5x,
4-2[8:1]/5-1[8:1],4-8[8:1]/5-7[8:1],4x/5x,{8}28,3,
46,7,18,2,3h[4:1]/5,,8,8,47,3,25,6,37,,18,18,
2h[4:1]/7h[4:1],,,45,{2}3h[4:1]/6h[4:1],
{4}1b-4[8:1]/7b-4[8:1],1b/7b,2b/8p3[8:1],1/8b,
{16}3x-8[8:1]/5x,,,4,3,,4,,3-8[8:1]/5,,,4,3,,4,,3-8[8:1]/5,,,4,{8}3,4,35,26,17,,
{16}4/6-1[8:1],,,5,6,,5,,4/6-1[8:1],,,5,6,,5,,4/6-1[8:1],,,5,{8}6,5,46,37,28,,
{16}3-8[8:1]/5,,,4,3,,4,,3-8[8:1]/5,,,4,3,,4,,3-8[8:1]/5,,,4,3,,4,,{4}46,37,
2q6[4:1]/6,5,8p4[4:1],4,3h[4:3],,5h[4:27],,
{32}2x,1x,8x,7x,6x,,,,7x,8x,1x,2x,3x,,,,2x,1x,8x,7x,6x,,,,7x,8x,1x,2x,3x,,,,
2x,1x,8x,7x,6x,,,,7x,8x,1x,2x,3x,,,,2x,1x,8x,7x,6x,,,,7x,8x,1x,2x,3x,,,,
2x,1x,8x,7x,6x,,,,7x,8x,1x,2x,3x,,,,2x,1x,8x,7x,6x,,,,7x,8x,1x,2x,3x,,,,
2x,1x,8x,7x,6x,,,,7x,8x,1x,2x,3x,,,,2x,1x,8x,7x,6x,,,,7x,8x,1x,2x,3x,,,,
2x,1x,8x,7x,6x,,,,7x,8x,1x,2x,3x,,,,2x,1x,8x,7x,6x,,,,7x,8x,1x,2x,3x,,,,
2x,1x,8x,7x,6x,,,,7x,8x,1x,2x,3x,,,,2x,1x,8x,7x,6x,,,,7x,8x,1x,2x,3x,,,,
2x,1x,8x,7x,6x,,,,7x,8x,1x,2x,3x,,,,{4}1x,4-1[8:1]/5-8[8:1],,4-1[8:1]/5-8[8:1],,
{1}4^1[1:2]/5^8[1:2],,,,,,,
E

名前:
コメント:

タグ:

+ タグ編集
  • タグ:
最終更新:2026年01月07日 19:35