EASY
BASIC
(190.0){1},,,
{2}1,1,
{2}2,2,
{2}3,3,
{2}4/5,4/5,
{1}5h[2:1],
{1}6h[2:1],
{2}7,7,
{2}1/8,1/8,
{2}8,8,
{4}8,8,8,,
{2}7,7,
{4}7,7,7,,
{2}6,6,
{4}6,6,6,,
{2}5/6,5/6,
{2}3/4,3/4,
{2}4,4,
{4}4,4,4,,
{2}3,3,
{4}3,3,3,,
{2}2,2,
{4}2,2,2,,
{2}1/2,1/2,
{2}7/8,7/8,
{2}1,1-5[4:3],{1},
{2},7,
{2}7,8,
{1}8-4[4:3],,
{2}2,2,
{2}1/2,1/2,
{2}7/8,7/8,
{1}1-4[4:3]/8-5[4:3],,
{4}4,4,4,,
{4}3,3,3,,
{4}2,2,2,,
{4}1,8,1,,
{4}8,8,8,,
{4}7,7,7,,
{4}6,6,6,,
{4}4/5,4/5,4/5,,
{4}5,5,5,,
{4}6,6,6,,
{4}7,7,7,,
{4}8,1,8,,
{4}1,1,1,,
{4}2,2,2,,
{2}3/4,3/4,
{2}5/6,5/6,
{4}4,4,3,3,
{4}2,2,1,1,
{4}8,8,7,7,
{4}6,6,4/5,,
{4}3,3,3/4,,
{4}6,6,5/6,,
{2}5/6,3/4,
{4}5,4,5b,,
{2}4,4,
{2}3,3,
{2}2,2,
{2}1/8,1/8,
{2}8,8,
{2}7,7,
{2}6,6,
{2}4/5,4/5,
{2}3/4,3/4,
{4}3,4,3,,
{2}5/6,5/6,
{4}6,5,6,,
{2}7/8,7/8,
{4}7,8,7,,
{2}1/2,1/2,
{1}1b/2b,
{1}8-5[4:3],,
{1}1-4[4:3],,
{1}7-4[4:3],,
{2}2,2,
{4}1/8,1/8,1b/8b,,
{4}8,8,7,7,
{4}6,6,5,,
{4}4,5,4,,
{4}5,4,5,,
{4}4,4,3,3,
{4}2,2,1,,
{2}1/8,1/8,
{1}2h[2:1]/7h[2:1],
{4}1,1,2,2,
{4}3,3,4,4,
{4}5,5,6,6,
{4}7,7,1/8,,
{4}1,1,1/8,,
{4}8,8,1/8,,
{2}1/2,7/8,
{4}1,8,1,,
{2}7/8,1/2,
{4}8,1,8b,,
{2}1,1,
{2}2,2,
{2}3,3,
{4}4,5,4,,
{2}5,5,
{2}6,6,
{2}7,7,
{2}8,8,
{1}1-5[4:3],,
E
ADVANCED
(190.0){1},
{4}3,3/4,6,5/6,
{4}4/5,3/6,2/7,,
{4}2,2,1,1,
{2}7/8,7/8,
{4}7,7,8,8,
{2}1/2,1/2,
{1}2^5[2:1],
{1}6<2[16:9],
{4}3,3/4,6,5/6,
{2}3h[4:1]/4h[4:1],5h[4:1]/6h[4:1],
{1}4qq1[16:15]/5pp8[16:15],
{2},1/8,
{4}2,2,3,3,
{4}4,4,5/6,,
{4}3,3,3/4,,
{4}6,6,5/6,,
{2}3/4,4qq2[8:5]/5pp7[8:5],{1},
{4}3,3,2,2,
{4}1,1,7/8,,
{4}7,7,6,6,
{4}5,5,3/4,,
{4}6,6,5/6,,
{4}3,3,3/4,,
{2}5/6,3/4,
{1}5/4q1[2:1],
{4}7h[2:1],8,8,2h[2:1],
{4}1,1,8h[2:1],1,
{4}1,,1/8,2/7,
{4}3/6,,3h[2:1],4,
{4}4,6h[2:1],5,5,
{4}4h[2:1],5,5,,
{4}4/5,3/6,2/7,,
{2}2h[2:1],1,
{2}7h[2:1],8,
{1}1bpp4[1:1]/8bqq5[1:1],,
{4}4,3/4,2/5,,
{4}5,5/6,4/7,,
{4}3/4,3/4,5/6,5/6,
{1}4qq2[2:1]/5pp7[2:1],
{1}5p4[8:5],
{1}3p2[8:5],
{1}1<2[8:9],,
{4}8,7/8,1/6,,
{4}1,1/2,3/8,,
{4}7/8,7/8,1/2,1/2,
{1}1pp3[2:1]/8qq6[2:1],
{4}2,1,3/8,,
{4}7,8,1/6,,
{4}1,8,2/7,,
{1}2h[2:1]/7h[2:1],
{4}1h[8:3]/2h[8:3],,,1h[8:3]/2h[8:3],
{2},7h[8:3]/8h[8:3],
{4},7h[8:3]/8h[8:3],,,
{4}1/2,1/2,3/8,,
{4}7,7,7/8,,
{4}2,2,1/2,,
{4}7,7/8,2,1/2,
{4}1/8,2/7,3b/6b,,
{4}3,3,4,4,
{2}5/6,5/6,
{4}6,6,5,5,
{2}3/4,3/4,
{1}3^8[2:1],
{1}6^1[2:1],
{4}3,3/4,6,5/6,
{2}3h[4:1]/4h[4:1],5h[4:1]/6h[4:1],
{4}4,4,5,5,
{1}4-2[8:3]/5-7[8:3],
{4}8,8,1,1,
{1}1-5[2:1]/8-4[2:1],
{4}3,4,6,5,
{1}4z8[8:7],
{4},,1,8,
{1}1b/8b,
{2}7h[2:1],8,
{2}2h[2:1],1,
{2}8h[2:1],1h[2:1],
{1}8qq6[2:1],
{1}4^2[16:7],
{1}1^6[2:1],
{1}5^2[8:3],
{1}1^4[2:1]/8^5[2:1],
{4}5,5/6,4/7,,
{4}4,3/4,2/5,,
{4}5/6,3/4,5/6,3/4,
{1}4qq2[2:1]/5pp7[2:1],
{4}6h[4:1],5,4/7,,
{4}3h[4:1],4,2/5,,
{4}5,4,3/6,,
{1}4-1[8:3]/5-8[8:3],
{4}1h[8:3]/2h[8:3],,,7h[8:3]/8h[8:3],
{2},1h[8:3]/2h[8:3],
{4},7h[8:3]/8h[8:3],,,
{4}1/8,1/8,2/7,,
{4}2,1,3/8,,
{4}7,8,1/6,,
{4}2,1/2,7,7/8,
{4}1/8,2/7,3b/6b,,
{4}2,1/2,7,7/8,
{4}1/8,2/7,3b-1[4:1]/6b-8[4:1],,
{4},,8,8,
{4}1/2,1/2,3/8,,
{4}2,2,1,1,
{4}7/8,7/8,1/6,,
{1}7^4[2:1],
{1}3>7[16:9],
{4}6,5/6,3,3/4,
{2}5h[4:1]/6h[4:1],3h[4:1]/4h[4:1],
{4}4/5,4/5,3/6,2/7,
{1}1b/8b,
E
EXPERT
(190.0){1},
{8}1,8,1,8,,3/4,,6,
{8}5,6,,1/8,1-3[8:1]/8-6[8:1],,,,
{4}6h[4:1],5,3h[4:1],4,
{4}6h[4:1],5,3h[4:1],4,
{4}7h[4:1],8,2h[4:1],1,
{4}7h[4:1],8,2h[4:1],1,
{4}6h[4:1],5,8h[4:1],7,
{4}3h[4:1],4,1h[4:1],2,
{2}7^4[8:1],2^5[8:1],
{8}7,1,7,,2,8,2,8b,
{8},3,3h[4:3],,5,,4,,
{8}5,,3/4,,6,6,,5/7,
{8},6,6h[4:3],,4,,5,,
{8}4,,5/6,,3,3,,2/4,
{8},3,3h[2:1],,5,,4,,
{4}1/8,4/5,2/7,4/5,
{8}1/2,1/2,,,7/8,7/8,,1/8pp5[8:5],{1},
{4}1/3,3h[4:3],8,1,
{8}8,,1/2,,7,7,,6/8,
{8},6,6h[4:3],,1,,8,,
{8}1,,7/8,,2,2,,1/3,
{8},3,3h[2:1],,8,,1,,
{4}4/5,1/8,3/6,1/8,
{8}1/2,1/2,,,7/8,7/8,,8/1qq4[8:5],{1},
{4}1^6[4:1]/2p5[4:1],,,7q4[4:1]/8^3[4:1],
{2},1^4[4:1]/8^5[4:1],
{4},2/4,5/7,7^5[4:1]/8p4[4:1],
{2},1^6[4:1]/2p5[4:1],
{4},7q4[4:1]/8^3[4:1],,,
{4}4^1[4:1]/5^8[4:1],,,6/8,
{4}1/3,1q5[4:1]/2^4[4:1],,,
{4}1/8h[4:1],7h[4:1],6h[4:1],5h[4:1],
{4}4h[4:1],3h[4:1],2h[4:1],1h[4:1],
{8}8,1,8,1,,5/6,,3,
{8}4,3,,1/8,1-4[8:1]/8-5[8:1],,,,
{8}7,1,7,1,7-4[8:1],,8,,
{8}2,8,2,8,2-5[8:1],,1,,
{4}8,1/7,2/6,3>6[2:1]/4p5[2:1],
{4},,,7/8,
{4}4h[4:1],2h[4:1],1,3/8,
{4}5h[4:1],7h[4:1],8,1/6,
{4}3^8[8:1],4,7^4[8:1],8,
{1}1pp4[2:1]*qq6[2:1],
{8}2,8,2,8,2-5[8:1],,1,,
{8}7,1,7,1,7-4[8:1],,8,,
{4}1,2/8,3/7,5q4[2:1]/6<3[2:1],
{4},,,1/2,
{4}5h[4:1],7h[4:1],8,1/6,
{4}4h[4:1],2h[4:1],1,3/8,
{1}1V37[2:1]/6V48[2:1],
{1}1pp4[2:1]/8qq5[2:1],
{8}7-4[8:1],,,2-5[8:1],,,7-4[8:1],,
{8},2-5[8:1],,,7-3[8:1],,,2-6[8:1],
{8},,7-3[8:1],,,2-6[8:1],,,
{8}7-3[8:1],,,2-7[8:1],,,,,
{4}7,8-3[4:1]*-5[4:1],,,
{4}2,1-4[4:1]*-6[4:1],,,
{8}7b,8,7,,2b,1,2,,
{8}7b,2,7,2,7-2[8:1],,1,,
{4}3,1/2,6,7/8,
{4}3,1/2,6,7/8,
{4}4,1/2,5,7/8,
{4}4,1/2,5,7/8,
{2}2^5[8:1],1^6[8:1],
{2}5^2[8:1],6^1[8:1],
{1}3s7[2:1],
{8}6,4,6,,3,5,3,,
{4}2/4,2/4,4/6,4/6,
{1}2v5[2:1]/8v5[2:1],
{4}2/8,2/8,6/8,6/8,
{1}7/5pp5[2:1]*qq5[2:1],
{4}1/7,1/7,1/3,1/3,
{1}2/4z8[2:1],
{4}3/6,3/6,2/7,2/7,
{1}1h[2:1]/8h[2:1],
{4}4h[1:1],5,,5,
{4}5h[1:1],4,,4,
{4}3h[1:1],5,,5,
{4}6h[1:1],4,,4,
{4}1h[4:1],2h[4:1],3,1/4,
{4}8h[4:1],7h[4:1],6,5/8,
{8}3/4,3/4,,,5/6,5/6,,,
{4}6/8,4/6,2/4,1/8,
{8}7,8,6,8,7^4[8:1],,2,,
{8}2,1,3,1,2^5[8:1],,7,,
{4}8,1/7,2/6,7p4[2:1]/8pp3[2:1],{1},
{4}4h[4:1],2h[4:1],1,3/8,
{4}5h[4:1],7h[4:1],8,1/6,
{1}3V51[2:1]/8V62[2:1],
{1}1pp4[2:1]/8qq5[2:1],
{8}7-4[8:1],,,2-5[8:1],,,7-4[8:1],,
{8},2-5[8:1],,,7-3[8:1],,,2-6[8:1],
{8},,7-3[8:1],,,2-6[8:1],,,
{8}7-3[8:1],,,2-7[8:1],,,,,
{4}7,8-3[4:1]*-5[4:1],,,
{4}2,1-4[4:1]*-6[4:1],,,
{8}2b/4b,2/4,2/4,,6b/8b,6/8,6/8,,
{8}3b,6,3,6,3,,1/8,,
{8}6b/8b,6/8,6/8,,2b/4b,2/4,2/4,,
{8}7b,2,7,2,7-2[8:1],,1b,,
{4}3,2/4,6,5/7,
{4}2,1/3,7,6/8,
{4}2,3/4,7,5/6,
{4}3,1/2,6,7/8,
{2}2-7[8:1],6-3[8:1],
{2}2-7[8:1],6-3[8:1],
{4}2^5[8:1],1,7^4[8:1],8,
{8}2,8,2,,7,1,7,,
{8}6,5,6,5,,3/4,,1/8,
{1}2b/7b,
E
MASTER
(190)
{8}28,17,28,17,,28,,17,28,17,,28,4-2[8:1]/5-7[8:1],,,,
{4}2-8[8:1],6-4[8:1],2-7[8:1],6-3[8:1],2,4qq1[4:1],5,,
7-2[8:1],3-6[8:1],7-2[8:1],3-6[8:1],7,5pp8[4:1],4,,
{12}3,4,2,7,8,6,3,4,2,7,8,6,{4}1-6[8:1],8-3[8:1],1-5[8:1],8,
{8}7,7h[8:1],5,5h[8:1],3,3h[8:1],1,1h[8:1],{16}8,1,8,1,8,,,,2,7,2,7,2,,1b/8b,,
{8},1,{4}1>5[4:1],5<1[4:1],1>5[4:1],5,1,{8}37,4-1[8:1]/8-5[8:1],,,
,8,{4}8<4[4:1],4>8[4:1],8<4[4:1],4,8,{8}26,1-4[8:1]/5-8[8:1],,,
,2,{4}2^7[4:1],7p3[4:1],3p7[4:1],7^4[4:1],4,1,
{2}5^8[8:1]/7h[4:1],2h[4:1]/4^1[8:1],5pp1[2:1]*p2[2:1]/7,{8},,,18,2b-5[8:1]/7b-4[8:1],,
{4},36,1v6[8:1]/8,7,1/8v3[8:1],2,{8}18,2-7[8:1]/6-3[8:1],,,
,78,16,,{4}4/5v2[8:1],3,4v7[8:1]/5,6,{8}18,3-6[8:1]/7-2[8:1],,,
,12,38,,{4}16,27,4q5[4:1]/5,5<4[4:1],,,
{8}34,56,,,24,5-1[8:1]/7,,6,,18,2q7[8:1]/7,36,,,,,
{16}5h[8:1]/6h[8:1],,,4h[8:1]/7h[8:1],,,47,,47,,,,
2h[8:1]/7h[8:1],,,1h[8:1]/8h[8:1],,,18,,27,,,,
4h[8:1]/7h[8:1],,,2h[8:1]/5h[8:1],,,47,,{4}47,4-8[8:1],7-3[8:1],2-6[8:1],8h[4:1],1,
{16}4h[8:1]/7h[8:1],,,2h[8:1]/5h[8:1],,,47,,1b/8b,,,,
4h[8:1]/7h[8:1],,,2h[8:1]/5h[8:1],,,47,,1b/8b,,,,
4h[8:1]/7h[8:1],,,2h[8:1]/5h[8:1],,,47,,{4}2-5[8:1]/5-1[8:1],,4b/7,2/5b,4b/7^2[8:1],,
4h[8:3]/5,5h[8:3],3h[8:3],6h[8:3],2h[8:3],7h[8:3],1h[4:1],8b,
{8}35,46,35,46,,24,,57,6,3,,28,17,,2b/7b,,
57,8,{4}1-5[8:1]/3,1-3[8:1]*-7[8:1],,{8}24,1,{4}6/8-4[8:1],8-2[8:1]*-6[8:1],,
2h[8:1]/4h[8:1],5h[8:1]/7h[8:1],2h[8:1]/4h[8:1],{8}57,5/7^2[8:1],,,,45,,8b,8b,,
{4}5/6-1[8:1],4,5/6-1[8:1],3,3-8[8:1]/4,6,34,6b-3[8:1],,4/8bv3[8:1]*v5[8:1],,18,
{32}1b,2,3,4,5,6,7,8,1b,2,3,4,5,6,7,8,1b,2,3,4,5,6,7,8,{4}1b,
{8}24,1,{4}6/8-4[8:1],8-2[8:1]*-6[8:1],,{8}57,8,{4}1-5[8:1]/3,1-3[8:1]*-7[8:1],,
5h[8:1]/7h[8:1],2h[8:1]/4h[8:1],5h[8:1]/7h[8:1],{8}24,2^7[8:1]/4,,,,45,,1b,1b,,
{2}4^1[8:1]*^7[8:1],5^2[8:1]*^8[8:1],1^4[8:1]*^6[8:1],8^3[8:1]*^5[8:1],
{6}1h[12:1]/6h[12:1],3h[12:1]/8h[12:1],1h[12:1]/6h[12:1],3h[12:1]/8h[12:1],
1h[12:1]/6h[12:1],3h[12:1]/8h[12:1],1h[12:1]/2h[12:1],3h[12:1]/8h[12:1],
4h[12:1]/7h[12:1],{2}5^2[8:1]/6^1[8:1],
{8}4-2[8:1],4h[8:1],,5-1[8:1],5h[8:1],,4-8[8:1],4h[8:1],,5-7[8:1],5h[8:1],,
4-1[8:1],4h[8:1],,5-8[8:1],5h[8:1],,4-2[8:1],4h[8:1],,5-7[8:1],5h[8:1],,
4-8[8:1],4h[8:1],,5,5,,27,,
{4}1h[4:1]/8,3-6[8:1],38,2b/7b,1/8h[4:1],6-3[8:1],16,2b/8b,
{8}5-8[8:1]/6,4,3,,3/4-1[8:1],5,6,,18,27,36,45,3/6-2[8:1],2b,1b,,
{4}3-8[8:1],4-7[8:1],3-8[8:1],4-7[8:1],2-5[8:1],6z2[4:1],1h[4:1],,
6-1[8:1],5-2[8:1],6-1[8:1],5,{8}25,3,47,6,2^5[8:1]/5-8[8:1],,,,
{12}3,4,2,7,5,6,3,4,2,7,5,6,2,1,3,6,8,7,2,1,3,6,8,7,
2h[6:1],,4,4h[6:1],,6,6h[6:1],,8,8h[6:1],,1,{2}1-5[8:1],1w5[8:1],
1-4[8:1]/7q4[8:1],5q1[8:1]/6-1[8:1],2V84[4:1]/6V84[4:1],{4},27,
{2}2^4[8:1]/6^4[8:1],3^5[8:1]/7^5[8:1],{4}45,1^4[8:1]/8^5[8:1],,,
5-8[8:1]/6,4,3/4-1[8:1],5,5-1[8:1]/6,4,3/4-8[8:1],5,
1>5[4:1],5<1[4:1],1-5[4:1],5s1[8:5],,,,,
{1}6h[1:1],7h[1:1],6h[1:1],3h[1:1],{4}2,1,8,7,6,5,4,3/6-3[8:1],,1v4[8:1]*v6[8:1],,
1^4[8:1]/5^8[8:1],1p5[8:1]/5p1[8:1],1^4[8:1]/5^8[8:1],1b/5b,1b/5b,
{8}25,3,{4}4-8[8:1]/7,1^4[8:1]*^6[8:1]/4,,{8}47,6,{4}2/5-1[8:1],5/8^3[8:1]*^5[8:1],,
2h[8:1]/4h[8:1],5h[8:1]/7h[8:1],2h[8:1]/4h[8:1],{8}57,5/7^2[8:1],,,,45,,8b,8b,,
{2}3-8[8:1]/7^4[8:1],2-5[8:1]/6^1[8:1],3-6[8:1]/7^2[8:1],2-7[8:1]/6^3[8:1],
{6}1h[12:1]/5h[12:1],2h[12:1]/6h[12:1],3h[12:1]/7h[12:1],4h[12:1]/8h[12:1],
3h[12:1]/7h[12:1],2h[12:1]/6h[12:1],1h[12:1]/5h[12:1],2h[12:1]/6h[12:1],
3h[12:1]/7h[12:1],{2}4^1[8:1]/8^5[8:1],
{8}1-5[8:1],1h[8:1],,8-4[8:1],8h[8:1],,7v2[8:1],7h[8:1],,6^1[8:1],6h[8:1],,
5pp7[8:1],5h[8:1],,4q8[8:1],4h[8:1],,3V57[8:1],3h[8:1],,2qq8[8:1],2h[8:1],,
1v4[8:1],1h[8:1],,8,{4}8w4[8:1],8b,
1/8h[4:1],6-3[8:1],16,2b/7b,1h[4:1]/8,3-6[8:1],38,2b/7b,
{8}3/4^1[8:1],5,6,,5^8[8:1]/6,4,3,,18,27,36,45,4-1[8:1]/5-8[8:1],,,,
5^8[8:1]/6,4,3,,3/4^1[8:1],5,6,,18,27,36,45,3/6-2[8:1],2b,1b,,
{16}3,4,3,4,{4}3-8[8:1],7-4[8:1],3^8[8:1],7^4[8:1],{8}3,2,1,{16}7,8,7,,,,
6,5,6,5,{4}6-1[8:1],2-5[8:1],6^1[8:1],2^5[8:1],{16}7,,8,,3,4,2,5,1b,,,,
{12}6,5,7,2,1,3,6,5,7,2,1,3,{8}6-1[8:1],6,3-8[8:1],3,5-1[8:1],5,4,4,
{16}7,6,5,4,1,2,3,4,8,7,6,5,2,3,4,5,7,8,7,8,7b,,,,2,1,2,1,2b,,,,
{8}34,56,34,13,,57,,24,
{1}3b/8b,,,,
E
Re:MASTER
- MAS─前半ノーツ不足 5pp1[2:1]*p2[2:1], → 5pp1[2:1]*p2[2:1]/7, -- らぐにゃ (2026-01-17 21:34:43)
最終更新:2026年10月03日 23:04