EASY
BASIC
ADVANCED
EXPERT
MASTER
Re:MASTER
(175)
{8}3h[8:3],,,4h[8:3],,,6h[8:3],,
,5h[8:3],,,4h[2:1],,,,
6h[8:3],,,5h[8:3],,,3h[8:3],,
,4h[8:3],,,5h[2:1],,,,
3,4,6,5,3h[8:3],,4,4,
,6,3,4,6h[8:3],,5,5,
,3,6,5,3h[8:3],,4,4,
,2,3,7,6,1,2/7,,
1h[4:1]/6h[4:1],,,8h[4:1]/3h[4:1],,,5/1s5[4:1],,
,,,8,8,3,4,6,
2h[4:1]/5h[4:1],,,4h[4:1]/7h[4:1],,,1/5-8[8:1],,
,,,8,8,6,4,2,
8h[4:1]/3h[4:1],,,1h[4:1]/6h[4:1],,,4/8,,
{12}3,4,3,6,5,6,3,4,2,6,5,7,
{8}4h[4:1]/8h[4:1],,,2h[4:1]/6h[4:1],,,3/7,,
1,1s5[4:1],,7,7-3[8:1],,,,
4/6h[8:1],5,,3h[8:1]/5,4,,4/7h[8:1],5,
,2h[8:1]/5,4,,4-1[8:1]/8-5[8:1],1/5,,,
{16}2h[8:1]/6,,,,4,,3/5,,,,4/6,,7,5,,5,
6h[8:1],,,,5,,4/6,,,,3/5,,2,4,,4,
{8}3h[8:1],,6,6,5h[8:1]/7,7,,4,
4/5h[8:1],,3,3,4h[8:1]/2,2,,1,
{4}1h[8:1]/8h[8:1],7h[8:1]/8h[8:1],7h[8:1]/6h[8:1],6h[8:1]/5h[8:1],
5h[8:1]/4h[8:1],3h[8:1]/4h[8:1],3h[8:1]/2h[8:1],1h[8:1]/2h[8:1],
{8}1/8,1/2,2/3,3/4,4/5,5/6,6/7,7/8,
{16}1,1,2,8,8,7,1-5[16:3]*s5[16:3],1,,,,,,,,,
{2}3-7[8:1]/7-3[8:1],1-5[8:1]/5-1[8:1],
{16}3,4,,4,2,,2,,5/1,,,7/4,,6,5,,
{2}4-8[8:1]/8-4[8:1],2-6[8:1]/6-2[8:1],
{12}8,8,4,7,7,3,6,6,2,5,5,1,
{2}2-6[8:1]/6-2[8:1],8-4[8:1]/4-8[8:1],
{16}6,5,,5,7,,7,,4/8,,,2/5,,3,4,,
{2}1-5[8:1]/5-1[8:1],3-7[8:1]/7-3[8:1],
{12}1,1,5,2,2,6,3,3,7,4,4,8,
{8}3/7,2-5[8:1],5>2[8:1],2<8[8:1],8-4[8:1],6,4,,
2/6,7-4[8:1],4<7[8:1],7>1[8:1],1-5[8:1],3,5,,
3/7,2-5[8:1],5>2[8:1],2<8[8:1],8-4[8:1],6,4,,
2/6,7-3[8:1],3,7,1,1/5,2/6,3/7,
{16},,2-5[8:1],,5V38[4:1],,2,,8-4[8:1],7,6,5,4,,6,,
2/6,,7-4[8:1],,4V61[4:1],,7,,1-5[8:1],2,3,4,5,,3,,
3/7,,2-5[8:1],,5V38[4:1],,2,,8-4[8:1],7,6,5,4,,6,,
{32}2,,4,,3,,4,,3,,,,7,,5,,6,,5,,6,,,,1,2/8,7/3,6/4,5,,,,
{1}3b>3[4:13]*>7[8:13]*>5[16:39]/7b<7[4:13]*<3[8:13]*<1[16:39],
{1},,,
{16}3h[8:1]/4h[8:1],,,,4h[8:1]/5h[8:1],,,,5h[8:1]/6h[8:1],,,,6,5,6,5,
6h[8:1],,,,5h[8:1]/4h[8:1],,,,4h[8:1]/3h[8:1],,,,3,4,3,4,
3,,2/5,,6,5,6,5,6,,7/4,,3,4,3,4,
{32}1,,7,,4,,8,,2,,5,,1,,7,,2,3,4,5,6,7,8,1,2/6,,,,,,,,
{8}4/6h[8:1],5,,3h[8:1]/5,4,,4/7h[8:1],5,
,3/5-1[8:1],1-5[8:1]/7h[4:1],,,,8b/4b,,
2-6[8:1],4,2,7-3[8:1],5,7,2-4[8:1],5,
2-6[8:1],8,2-4[8:1],4,2-6[8:1]*-8[8:1],,,,
7-3[8:1],5,7,2-6[8:1],4,2,7-5[8:1],4,
7-3[8:1],1,7-5[8:1],5V73[4:1],7-1[8:1],,,,
2-5[8:1],4,2,7-4[8:1],5,7,1-3[8:1],3,
1-5[8:1],8,1-3[8:1],3V15[4:1]*V17[4:1],1,,,,
8-5[8:1],6,8,1-4[8:1],3,1,8<3[4:1],,
1,1>6[4:1],,8,8w4[8:1],,,,
2-5[8:1]/6-1[8:1],,2/6,,3/7,2>5[8:1]/6<1[8:1],1/5,2p6[8:1]/6p2[8:1],
,6/2<4[16:3],,2,,1,2/8,7/3,
5-7[8:1],2-6[8:1],5-1[8:1],2-4[8:1],5,2,8,8,
{24}4/7,,,4/7,3/6,2/5,1/4,,,2/5,3/6,4/7,8/5w1[8:1],,,,,,5,,,,,,
{8}3-8[8:1]/7-4[8:1],,3/7,,2h[16:1]/6h[4:1],,8h[8:1],7h[8:1],
5h[8:1],4h[4:1],,1b,1b,,7/1,6/2,
4-2[8:1],7-3[8:1],4-8[8:1],7-5[8:1],4,7,1,1,
{24}2/5,,,2/5,3/6,4/7,5/8,,,4/7,3/6,2/5,1/4w8[8:1],,,,,,4,,,,,,
{8}2-6[8:1],1,2V48[8:3],8,7-5[8:1],6,7,,
7-3[8:1],8,7V51[8:3],1,2-4[8:1],3,2,,
2-6[8:1],1,2V48[8:3],8,7-5[8:1],6,7,,
7-3[8:1],8,7/1,,2,2/8,1/7,8/6,
,4/5,3/6,,7v4[8:1]/1v4[8:1],,7/1,,
{32}6v1[8:1]/2v5[8:1],3,4,5,6,7,8,1,2,,,,,,,,3/7,,,,,,,,4/8,,,,3/7,,,,
{8}2/6,,1/5,3/7,,4/8,2/6,,
{32}2/6h[16:1],,,,3/7h[16:1],,,,4/8h[16:1],,,,1h[16:1]/5,,,,2h[8:1]/6h[8:1],,,,,,,,2/6,1/5,8/4,7/3,6/2,5/1,4/8,3/7,
{8}2b/6b,,1-5[8:1],5,1w5[8:1],,,,
3/7,3/7-3[8:1],,1,1s5[8:1],,5,,
3/7,,2V48[4:1]/6,1,2/8-5[8:1]*-3[8:1],,,,
6h[8:1]/2h[8:3],,,8h[8:1],2h[8:1],4h[8:1],6h[8:1],8,
8/4,,3qq8[8:3]/5,6,3/7-4[8:1],,7,,
{12}2,4,3,7,5,6,1,3,2,8,6,7,
{8}1/5h[4:1],2,3,4h[4:1]/8,7,6,1/5,,
{32}8h[16:1]/2,3,4,,,,1h[16:1]/7,6,5,,,,1/8,,,,2/7h[16:3],,,,,,5,,6,,4,,5,,
{1}5b,,
E
- SLIDEの速度の修正を行いました。 -- けもがみ (2026-02-09 15:32:04)
最終更新:2026年10月04日 21:07