BASIC
ADVANCED
EXPERT
(171)
{4}E6,E5,E4,,,,,,E6,E5,E4,,,,,,
E8,E1,E2,,,,,,E8,E1,E2,,,,,,
E6/C,E7,E8,E1/C,E2,E3,E4/C,E5,E6,E7/C,E8,E1,E2/Ch[4:1],E3,E4,E5,
E6/C,E7,E8,E1/C,E2,E3,E4/C,E5,E6,E7/C,E8,E1,E2/Ch[4:1],E3,E4,E5,
{8}4x/6hx[2:1],,5,5,4,,3hx[2:1]/5x,,4,4,5,,
4x/6hx[2:1],,5,5,4,,3hx[2:1]/5x,,4,4,5,,{4}3x/6x,4-1[4:1]/5-8[4:1],,,
4/6h[4:3],8,{8}5,5,{4}4,3h[4:3]/5,1,{8}4,4,{4}5,
4/6h[4:7],5,7x,8x,8,7,5x,4x,
3h[4:3]/5,1,{8}4,4,{4}5,4/6h[4:3],8,{8}5,5,{4}4,
3h[4:7]/5,4,2x,1x,1,2,4x,5x,
4/6h[4:3],8,{8}5,5,4,4,{4}3h[4:3]/5,1,{8}4,4,5,5,
{4}4/6h[4:7],5,8x,8x,7,5,4x,4x,
3h[4:3]/5,1,{8}4,4,5,5,{4}4/6h[4:3],8,{8}5,5,4,4,
3h[8:3],,,1h[8:3],,,8h[8:3],,,6h[8:3],,,3,,45,,
{4}2h[1:2]/7,7,4,4,{8}5,5,{4}4,6,3,7h[1:1],1,8,6,2h[1:1],8,1,3,
7h[1:2],3,5,{8}5,5,{4}4,5,3,6,2h[1:1],8,1,3,7h[4:3],1,8,6p4[4:3],,,,,
{8}1x-4[8:1],5x-8[8:1],,,,,4x-1[8:1],8x-5[8:1],,,,,
1x-4[8:1],5x-8[8:1],,,,,4x-1[8:1],8x-5[8:1],,,,,
1x-4[8:1],5x-8[8:1],,,,3hx[8:3],,,
6x-1[8:1],2x-5[8:1],,,,,1x-6[8:1],5x-2[8:1],,,,,
6x-1[8:1],2x-5[8:1],,,,,1x-6[8:1],5x-2[8:1],,,,,
6x-1[8:1],2x-5[8:1],,,,8hx[8:3],,,
3x-6[8:1],7x-2[8:1],,,,,6x-3[8:1],2x-7[8:1],,,,,
3x-6[8:1],7x-2[8:1],,,,,6x-3[8:1],2x-7[8:1],,,,,
3x-6[8:1],7x-2[8:1],,,,5hx[8:3],,,
8x^5[8:1],4x^1[8:1],,,,,5x^8[8:1],1x^4[8:1],,,,,
8x^5[8:1],4x^1[8:1],,,,,5x^8[8:1],1x^4[8:1],,,,,
8x^5[8:1],4x^1[8:1],,,,6hx[8:21],,,
{4}Ch[4:1],,,Ch[4:1],,,Ch[4:1],,,Chf[4:1],,,,
8,8,8,1,1,1,6,6,4x/6x,{8}3,3x,4,,3x/6x,,5,5x,{4}4,4x/5x,4^1[4:1]/5^8[4:1],,,,2b/7b,
34,12,{8}78,6,{4}56,56,78,{8}12,3,{4}34,3x>6[2:1]/4,4,4,4,4/6x<3[2:1],4,4,4,
56,78,{8}12,3,{4}34,34,12,{8}78,6,{4}56,5/6x<3[2:1],5,5,5,3x>6[2:1]/5,5,5,5,
34,12,{8}56,7,{4}78,78,45,{8}12,3,{4}34,3x>6[2:1]/4,4,4,4,4/6x<3[2:1],4,4,4,
56,78,{8}34,2,{4}12,12,45,{8}78,6,{4}56,
{8}4h[4:1]/7h[4:1],,,2h[4:1]/6h[4:1],,,3h[4:1]/7h[4:1],,,2h[4:1]/5h[4:1],,,{4}34,2b/5b,
{8}6,5,{4}4,18,35,{8}4,5,{4}6,78,17,1/7x<2[2:1],1,1,1,1/2x>7[2:1],1,1,1,
{8}3,4,{4}5,18,46,{8}5,4,{4}3,12,18,57,{8}6,6,3,3,4,4,2,2,6,6,
{16}1,8,1,8,1b>8[2:3],,,,
{1}Cf,,,,,
E
MASTER
(171)
{4}6h[4:3],,,{8}4,3h[4:3],,5,,5h[4:1],,,,,
{4}3h[4:3],,,{8}5,6h[4:3],,4,,4h[4:1],,,,5,
{4}6h[4:3],5,5,{8}4,3h[4:3],,5,,5h[4:1],,,,,
{4}2h[4:3],4,4,{8}6,6h[2:1],,1,,1,,18,27,,
{4}4-1[4:5]/5,5,5,5,5,5,5,5,4-1[4:5]/6,6,6,6,6,6,6,6,
4-1[4:5]/7,7,7,7,7,7,7,7,4/8^5[4:5],4,3,3,2,2,1,1,
1/8h[2:1],7,6h[2:1],5,4h[2:1],3,2h[4:1],1,
28,{8}45,45,36,36,27,27,{16}1,8,1,8,1-5[8:1],8,1,8,{4}1,2b/8b,
{8}7-3[16:1],,1-4[16:1],1,6-2[16:1],6,8^3[16:1],8,4>7[4:1],,8x,,5-8[8:1],5,4x,,
3/7-3[8:1],,1,1^4[16:1],,6q7[4:1],,1,,,2,2-6[16:1],,8,,3x/7x,
4-1[16:1],,8-5[16:1],8,3-7[16:1],3,1^6[16:1],1,5<2[4:1],,1x,,4-1[8:1],4,5x,,
2-6[8:1]/6,,8,8^5[16:1],,3p2[4:1],,8,,,7,7h[4:1],,1,28,,
6-2[16:1],,4-1[16:1],4,7-3[16:1],7,5^2[16:1],5,1>6[4:1],,5x,,8-4[8:1],8,1x,,
2/6-2[8:1],,8,8^3[16:1],,4q5[4:1],,1,,,2,2-6[16:1],,8,,3x/7x,
1-4[16:1],,5-8[16:1],5,2-6[16:1],2,4^7[16:1],4,8<3[4:1],,4x,,1-5[8:1],1,8x,,
2,4,3,7b/B5/E5,,,2,4,3,7b/B5/E5,,,1-4[8:1]/8-5[8:1],27,1b/8b,,
1h[4:1],4,6h[4:1],5,3h[4:1],4,8h[4:1],5,3h[4:1],1,4h[4:1],1,5h[4:1],8,6h[4:1],8,
3-5[16:1],3,7-1[16:1],7,4-6[16:1],4,8-2[16:1],8,4-2[16:1],4,5-8[16:1],5,1,1,2x/7x,,
8h[4:1],5,3h[4:1],4,6h[4:1],5,1h[4:1],4,6h[4:1],8,5h[4:1],8,4h[4:1],1,3h[4:1],1,
6-4[16:1],6,2-8[16:1],2,5-3[16:1],5,1-7[16:1],1,5-7[16:1],5,4-1[16:1],4,8,8,2q3[8:5]/7p6[8:5],,{1},
{8}E3,E5,E4,E6,,,E7,E5,E6,E4,,,E3,E5,E4,E6,,,E3,E5,E4,E6,,,8^2[4:1],,3,3-8[4:1],,,,,
E7,E5,E6,E4,,,E3,E5,E4,E6,,,E7,E5,E6,E4,,,E7,E5,E6,E4,,,1^7[4:1],,6,6-3[4:1]*-4[4:1],,,,,
2,2h[8:5],B4,C,,,8,8h[8:5],B2,C,,,6,6h[8:5],B8,C,,,4,4h[4:1],B6,C,,,2^8[4:1],,7,7-2[4:1],,,,,
4^2[4:1],4,B2,C,,,6^4[4:1],6,B4,C,,,8^6[4:1],8,B6,C,,,2^8[4:1],2,B8,C,,,4-8[8:1],,1,1-4[8:1]*-6[8:1],,1,,37,
{2}2h[4:9]/6h[4:3],,,4h[4:5],,{16},,,,1,8,7,6,5,4,3,2,
{4}1b-4[8:1],8,7-2[8:1],6,5-8[8:1],4,3-6[8:1],2,
{8}35,4,5,46,5,4,25,4,5,47,5,4,36,27,{4}1qq4[8:3]/8,Cf,,{8},3,2,1,
7/8-3[8:1],,8-5[8:1],6,8-3[8:1],4,8-4[8:1],7,{4}8-3[8:1]*-5[8:1],8>7[4:1],8,1b,
{8}3,8,4h[8:1],{24}8x,7x,6x,4h[8:1],,,8x,1x,2x,4h[8:1],,,7x,6x,5x,
{8}4x/8,8,5h[8:1],{24}1x,2x,3x,5h[8:1],,,1x,8x,7x,5h[8:1],,,2x,3x,4x,
{8}1-6[8:1]/5x,,1-4[8:1],3,1-6[8:1],5,1-5[8:1],2,{4}1-4[8:1]*-6[8:1],1<2[4:1],1,8b,
{8}6,1,5h[8:1],{24}1x,2x,3x,5h[8:1],,,1x,8x,7x,5h[8:1],,,2x,3x,4x,
{8}1/5x,1,4h[8:1],{24}8x,7x,6x,4h[8:1],,,8x,1x,2x,4h[8:1],,,7x,6x,5x,
{8}4x/8^3[8:1],,8^5[8:1],6,8^3[8:1],5,8-4[8:1],7,{4}8-3[8:1]*-5[8:1],8>7[4:1],8,1b,
{8}3,8,4h[8:1],{24}8x,7x,6x,4h[8:1],,,8x,1x,2x,4h[8:1],,,7x,6x,5x,
{8}4x/8,8,5h[8:1],{24}1x,2x,3x,5h[8:1],,,1x,8x,7x,5h[8:1],,,2x,3x,4x,
{8}1^6[8:1]/5x,,1^4[8:1],3,1^6[8:1],5,1-5[8:1],2,{4}1-4[8:1]*-6[8:1],1w5[8:1],1,3b/7b,
{8}7,5,6,2b/B5/E5,,,7,5,6,2b/B5/E5,,,1-4[8:1]/8-5[8:1],27,1b/8b,,
{16}36,,7,8,5h[8:1],,4,6,3h[8:1],,1,2,7h[8:1],,1,8,2h[8:1],,4,3,6h[8:1],,4,5,{8}1,78,56,34,
{16}25,,2,1,4hx[8:1],,5x,3,6h[8:1],,8x,7,2h[8:1],,8x,1,7h[8:1],,5,6,3hx[8:1],,5x,4,{8}8h[8:1],1x,2b/6b,,
{16}47,,2,1,4h[8:1],,5,3,6h[8:1],,8,7,2h[8:1],,8,1,7h[8:1],,5,6,3h[8:1],,5,4,{8}8,12,34,56,
7-3[8:1],1^4[8:1],7x,{4}1x^6[8:1],1x-5[8:1]/3,1x/5,{8}8-4[8:1],3x,8x,,{16}2x,6,3,7,4x,8,
{1}1bqq6[4:7]/5bqq2[4:7],,,,,,
E
Re:MASTER
(171)
{8}3h[1:2],,,,,,,{4}4,4,5,{8}5,,,
{8}6h[1:2],,,,,,,{4}5,5,4,4,{8}2,
{4}2h[1:2],4,4,{8}5,5,,4,,4,,5,,,
{4}7h[8:9],5,5,{8}4,4,,5,,56,,45,5/4>5[4:13],,
{4}E6,E7,E8,E1,E2,E3,E4,E5,
{4}B6,B7,B8,B1,B2,B3,B4,5x<4[4:13],
{4}E4,E3,E2,E1,E8,E7,E6,E5,
{4}B3,B2,B1,B8,B7,B6,B5,27,
{4}8/1h[4:6],7,6,5,4,3,2,18,
{8}8,8,17,17,26,26,35,35,{16}4,5,4,5,4,5,4,5,4-8[8:1],,,,3/4b,,,,
{8}1x/7x,,46,8,57,8,5/4-2[8:1],7,4/5-8[8:1],,{4}5/4q5[4:1],45,C,
{8}46,,28,2/8-4[8:1],,8/2-6[8:1],,28,,7,8,1-5[8:1]/7-4[8:1],,17,,26,
{8}26,,35,1,24,1,4/5-7[8:1],2,5/4-1[8:1],,{4}4/5p4[4:1],45,C,
{8}35,,17,7/1-5[8:1],,1/7-3[8:1],,17,,2,4,1h[4:1]/5h[4:1],,,Cf,,
{8}28,,46,8,35,1,6/4-2[8:1],8,4/5-8[8:1],,{4}5/4>5[4:1],45,C,
{8}46,,28,2>4[8:1]/8-4[8:1],,2-6[8:1]/8<6[8:1],,28,,7,8,1-5[8:1]/7-4[8:1],,17,,26,
{8}26,,35,1,46,8,3/5-7[8:1],1,5/4-1[8:1],,{4}4/5<4[4:1],45,C,
{8}5h[4:1]/7h[4:1],,,2h[4:1]/4h[4:1],,,6h[4:1]/8h[4:1],,,1h[4:1]/3h[4:1],,,45,18,2b/7b,,
{8}6/2h[8:1],4,2/6h[8:1],4,6/2h[8:1],4,2/6h[8:1],4,7/1h[8:1],4,1/7h[8:1],4,7/1h[8:1],4,35,6,
{8}7-5[8:1],7,8-4[8:1],8,1-5[8:1],1,2-4[8:1],2,8-4[8:1],8,1-5[8:1],1,8,8,1b/7b,,
{8}3/7h[8:1],5,7/3h[8:1],5,3/7h[8:1],5,7/3h[8:1],5,2/8h[8:1],5,8/2h[8:1],5,2/8h[8:1],5,46,3,
{8}2>4[8:1],2,1q5[8:1],1,8p4[8:1],8,7<5[8:1],7,{16}2,1,8,7,6,5,4,3,27,,,,1b-7-3-5[4:3]b/8b-2-6-4[4:3]b,,,,
{1},{8}6,5,4,3h[8:3],,,5,4,
{8}3,2h[8:3],,,4,3,2,1h[8:3],,,5,4,3,2h[8:3],,,
{8}5-7-3[8:3],,3,3-1[8:1],,,,,2,3,4,5h[8:3],,,3,4,
{8}5,6h[8:3],,,4,5,6,7h[8:3],,,5,6,7,8h[8:3],,,
{4}3<1[2:1],3hx[2:1],,,1/2h[8:6],{8}E4,D4,,,4h[8:6],,
{8}E5,D5,,,5h[8:6],,E7,D7,,,7h[8:6],,E1,D1,,,
{8}1-4<5[4:1],,5-8[16:3],5,,,,,8/7h[8:6],,E6,D6,,,5h[8:6],,
{8}E4,D4,,,3h[8:6],,E2,D2,,,1h[8:6],,E1,D1,,,
{4}8pp5[2:1],8hx[2:1],,,Ch[4:1],,,B2/B7/Ch[4:1],
{4},,B2/B3/B6/B7/Ch[4:1],,,B2/B3/B6/B7/E3/E7/Ch[4:1],,{16}A1,A8,A7,A6,
{16}A5,A4,A3,A2,8bx/1bxs5[2:1],,,,{4}8,8,8,8z4[2:1],1,1,
{8}1,,A5/D6f/E6/2h[4:1],,,A4/D4f/E4/7h[4:1],,,A1/D2f/E2/6h[4:1],,,A8/D8f/E8/3h[4:1],,,45,,
{8}1pp4[8:3]/8qq5[8:3],,Cf,,,,,4x/5x,4x/5x,,36,,48,6,15,3,
{8}8/4-2-8-2-4[2:1],6,5,,{4}4q4[4:1]*<3[4:1],,,56,{24}8,,,2x/1h[8:1],3x,4x,,,,8x/1h[8:1],7x,6x,
{24},,,2x/1h[8:1],3x,4x,5x,,,,,,8,,,7x/8h[8:1],6x,5x,,,,1x/8h[8:1],2x,3x,,,,7x/8h[8:1],6x,5x,4bx,,,,,,{8}15,3,48,6,
{8}1/5-7-1-7-5[2:1],3,4,,{4}5p5[4:1]*>6[4:1],,,34,{24}1,,,7x/8h[8:1],6x,5x,,,,1x/8h[8:1],2x,3x,
{24},,,7x/8h[8:1],6x,5x,4x,,,,,,{8}1,2-5-1[4:1]/8-5-1[4:1],,28,Cf,,8,,78,6,12,3,
{8}7/8-2-4-2-8[2:1],6,78,,{4}8p8[4:1]*<1[4:1],,,78,{24}46,,,45,3x,2x,1x,,,4-8[8:1],5x,6x,
{8}7x,4,,,5,{24}45,6x,7x,8x,,,5-8[8:1],4x,3x,2x,,,{8}5,1,,12,3,78,6,
{8}2/1-7-5-7-1[2:1],3,12,,{4}1q1[4:1]*>8[4:1],,,{8}1h[4:1]/3h[4:1],,,6h[4:1]/8h[4:1],,,
{8}2h[4:1]/4h[4:1],,,5h[4:1]/7h[4:1],,,18,45,3b/6b,,5/7h[8:1],1,4/6h[8:1],1,5/7h[8:1],1,
{8}4/6h[8:1],1,4/2h[8:1],8,5/3h[8:1],8,24,78,56,34,8/2-6[8:1],3,2/8-4[8:1],7,8/2-5[8:1],3,
{8}2/8-5[8:1],7,8/2-6[8:1],3,2/8-4-8[4:1],7,28,3,1b,,4/2h[8:1],8,5/3h[8:1],8,4/2h[8:1],8,
{8}5/3h[8:1],8,5/7h[8:1],1,4/6h[8:1],1,57,12,34,56,7/8-4-8[4:1],1,28,1-4-6-2[8:3],,17,
{8},8-6-1-5[8:3],,48,4,4w8[8:1],,,,{32}8x,1x/7x,2x/6x,3x/5x,4bx-2-6-8[16:35]*s8[16:35]b,,,,,,,,{2},
{1},,
{4},
E
最終更新:2026年09月06日 18:23