アットウィキロゴ

Starry Colors

アーティスト BlackY feat. Risa Yuzuki

BPM BASIC ADVANCED EXPERT MASTER Re:MASTER
177 4 7+ 11 14 -

EXPERT MASTER Re:MASTER
譜面制作者 はっぴー ロシェ@ペンギン -

BASIC


ADVANCED


EXPERT

(177)
{0.5}4^1[4:3],5^8[4:3],2^7[4:3],7^2[4:3],
{8}3h[8:3],,,4,{2}4-8[2:1],,,{8}6h[8:3],,,5,{2}5-1[2:1],,,
{8}2h[8:3],,,4,{2}4-8[2:1],,,{8}7h[8:3],,,5,{2}5-1[2:1],,,
1h[4:7],,{4}4,4,4,8b,
5h[4:1]/7h[4:1],,{16}4x/6x,,,3x/5x,,,{8}2hx[4:1]/4x,,4,4,,{16}3x/5x,,,4x/6x,,,5x/7hx[4:1],,
{8},5,5,6,,47,,25,{4}2x/5x,1x/8x,4x/7x,1x^4[4:1]/8x^5[4:1],,,
{16}35,,,46,,,{8}5/7h[4:1],,5,5,,{16}46,,,35,,,2h[4:1]/4,,
{8},4,4,3,,25,,47,{4}47,18,{16}2x/5x,,,3x/6x,,,4x/7hx[8:3],,
{8},,5,5,,48,,2h[4:1]/6,,{16}4,,,24,,,13,,,28,,,1/7p4[8:5],,
{1},{4}3x/5x,1x/7x,4x/6x,2x/8x,
7h[2:1],5,2h[2:1],4,7h[2:1],6,2h[2:1],3,
6h[2:1],8,3h[2:1],1,6h[2:1],7,{16}4,,,46,,,35,,
{8}2,2,6,6,4,4,8,8,2,2,6,6,1,1,5,5,3,3,{4}6<4[2:1],,,Cf,,,2b/7b,
{8}46,,3,{4}3h[4:1],1h[4:1],8h[4:1],6h[4:1],3h[4:1],{8}4,4,,
35,,6,{4}6h[4:1],8h[4:1],1h[4:1],3h[4:1],6h[4:1],{8}5,5,,
46,,35,{4}3h[4:1]/5,1h[4:1],8h[4:1],6h[4:1],3h[4:1],{8}4,4,,
35,,46,{4}4/6h[4:1],8h[4:1],1h[4:1],3h[4:1],5,{8}26,26,,
17,,2,{4}2h[4:1],4h[4:1],5h[4:1],7h[4:1],2h[4:1],{8}1,1,,
28,,7,{4}7h[4:1],5h[4:1],4h[4:1],2h[4:1],7h[4:1],{8}8,8,,
{2}1^4[4:1],5^8[4:1],1^4[4:1],5^8[4:1],{4}2,1>8[2:1],,,,,,1b,
56,78,12,{8}34,{4}34,25,56,{8}47,{2}4/7^2[4:1],3p6[4:1],5^8[4:1],{4},1h[4:1],8b,
34,12,78,{8}56,{4}56,47,34,{8}25,{2}2^7[4:1]/5,6q3[4:1],4^1[4:1],{4},8h[4:1],1b,
24,45,57,{8}18,{2}1-6[4:1],8-4[4:1],{8}2,2h[4:1],,4,{4}4,8x,5-1[4:1],,{16},,2x/8x,,,3x/7x,,,4x/6x,,
{8}5,5,3,3,6,6,4,4,5,5,2,2,7,7,36,,
{16}4,5,4,5,4,5,4,5,4,5,4,5,4,5,4,5,{4}4h[1:1],,6,5,
{0.5}3>4[4:3],{4}6h[1:2],,E6,E5,E4,,B4/B5,,
3h[4:7],{16}5x,,,5x-1[4:1],{2},{8},8,8,,{4}5,6>8[4:3],
{1},{8},4,3,3,6,6,57,,
{4}35,2b/6b,{8}3,3,4,2,6,6,5,7,1,1,8,8,
3,4,5,6,3,3,4,5,3,4,5,6,3,3,4,5,
6,6,5,7,3,3,4,2,5,5,3,3,6,6,27,,
{16}1,8,1,8,1,8,1,8,1,8,1,8,1,8,1,8,{1}1>8[4:3],Cf,,,,
{4}5,5,5,5,5,5,5,5,4,4,4,4,4,4,{8}45,45,36,,
{2}B4/B5/Chf[8:7],,,{8},1x,1hx[4:1],,
8,,56,{4}47,25,46,3b/7b,{16},,1x/8x,,,2x/7x,,,3x/6x,,
{4}3/6h[2:1],5,3h[2:1],4,7h[2:1],8,2h[2:1],1,
{8}6,6h[8:3],5,,3,3h[8:3],4,,7,7h[8:3],8,,2,2h[2:1],1,,
5,5,3,3,6,6,2,2,8,8,37,,{16}4,5,4,5,4>5[1:4],,,,
{1}Cf,,,,,,,,
E

MASTER

(177)
{1} 5>1[4:3],4>8[4:3],
{8} 3,,2,2,,1>7[8:3],,8h[8:5],
{4} ,,1,27,
{1} 4<8[4:3],5<1[4:3],
{8} 6,,7,7,,8V62[4:1],,2V48[8:3],
{4} ,,1,2,3h[2:3]/7^2[4:1],,,
{8} ,E3,,E7,
{4} ,8,,2^7[4:1]/6h[2:3],,,
{8} ,E7,,E3,
{4} ,1,,4h[2:1]/7^2[4:1],,,
{8} ,E1/E5,,E3/E7,
{4} ,E8,E7,4,
{8} 3,3,,24,,13,,28,,,
{4} 3x/6x,4hx[1:1]/5x,Chf[4:6],,,,1,
{8} 2,3,
{4} 4-8[8:1],,

{16} 1x/7x,,28,,1,8,1,8,2h[8:1],,6,3h[8:1],,7,
{4} 4>8[4:1],
{8} 5,5,,
{16} 6,5,,3,
{8} 4,3h[4:1]/6h[4:1],,,
{16} 2,1,2,1,
{12} 3,3,3,4,4,4,
{4} 5x-1[8:1],5x/7x-3[8:1],1x-5[8:1]/7x,1x/5xw1[8:1],,2b/7b,
{16} 3h[8:1],,6,2h[8:1],,7,
{4} 1s5[4:1],,
{16} ,,8,1,,2pp4[16:3]/6pp8[16:3],,,,,
{16} ,,,7,6,5,4,3,2,1,8,7,6,5,4,3,
{2} 2xq6[8:1]/6x,
{6} 8x,5x/6x,3h[4:1]/4x-8[6:1],
{8} ,,1b,
{4} 27,24,5/7h[16:3],
{16} 6h[8:1]/8h[8:1],,,5h[8:1]/7h[8:1],,,4h[8:1]/6h[8:1],,,3h[8:1]/5h[8:1],,,
{8} 2h[8:1]/4h[8:1],,,B2,B7,,18,,45,
{4} 3x/4x-8[8:1],3x-7[8:1]/4x,2x-6[8:1]/3x,1x/2x,
{4} 8h[2:1],{32} ,B8,C,B4,{8} ,
{4} 1h[2:1],{32} ,B1,C,B5,{8} ,
{4} 6h[2:1],{32} ,B6,C,B2,{8} ,
{4} 3h[2:1],{32} ,B3,C,B7,{8} ,
{4} 5h[2:1],{32} ,B5,C,B1,{8} ,
{4} 4h[2:1],{32} ,B4,C,B8,{8} ,
{4} 7h[2:1],{32} ,B7,C,B3,{8} ,
{16} 2,,,13,,,48,,
{8} 5/7h[4:3],5,4,4,3,3,2,2,1/3h[4:3],1,8,8,7,7,6,6,
{16} 4,5,4,5,4,5,4,5,
{32} 4x,3,2,1,8,7,6,5,
{2} 4x-8[8:1]/8x-4[8:1],
{16} 2xV46[4:1],,,8xz4[4:1],
{2} ,

{8} 1,2,34,5,6,7,18,2,3^8[8:1],7,6,5,14,3,58,6,14,2,3,
{4} 4/6-2[8:1],5-1[8:1],4-8[8:1],
{8} 3,2,1/7^4[8:1],,2,3-7[8:1],3h[8:3],
{4} ,8b,
{8} 56,4,3,
{4} 2-6[8:1],1-5[8:1],8-4[8:1],
{8} 6,7,8,12,3,4,5,67,8,1,2,
{16} 3,4,3,4,3,,6,5,
{8} 6-2[8:1],6h[8:3],,,1b,8,7,
{4} 2-6[8:1],4-8[8:1],2>6[4:1],
{8} 1,8,7h[4:1],,8,16,25,4,3,2,
{4} 1-5[8:1]/4-7[8:1],1^6[8:1],1^4[8:1],1-5[8:1],1,
{8} 36,27,18,
2-6[8:1],1-7[8:1],2x,1x,4-8[8:1],5,3x/4x,,7-3[8:1],8-2[8:1],7x,8x,5-1[8:1],4,5x/6x,,8,8,7,6,45,,6,5<2[4:1]/7h[2:1],,,,,
{32} 1x,8x,7x,6x,5x,4x,3x,2x,
{4} 1b/8b,

{16} 2x,6,5,,8,1,,4,3,,7,8,16,,25,,3,4,2,5,1,6,8,7,1x^6[8:1],2x,3hx[8:1],,,,,,
4,5,2,,8,1,,4,3,,7,8,16,,38,,2,7,3,6,4>8[4:1],5,4,,
{4} 8x<4[4:1],4x-8[8:1],1-4[8:1]*-6[8:1],1b,
{16} 2,4,3,,56,,34,,6,5,7,4,8,3,1,2,8x^3[8:1],7x,6xh[8:1],,,,
{8} ,4V25[8:3],,5,
{4} 5x<1[4:1],1x>5[4:1],5x-1[8:1],1b,
{16} ,,3,4,5,6,
{4} 2x/7x,
{16} 4,5,2,,8,1,,4,3,,6,5,48,,26,,8,1,7,2,6,3,5,4,8x^3[8:1],7x,6xh[8:1],,,,
{8} ,2x/8xV62[4:1],,,5b-1[8:1],,5x/8b-4[8:1],,2b>1[4:1]/8x,,2x/Cf,,,
{16} 6,,,17,,,28,,
{8} 3x/4x,4,45,5,56,6,67,7,7x/8x,6,5,4,3,3,6,6,

{16} 4x,5,4,5,3,6,3,6,2,7,2,7,2,7,2,7,1x,2,3,4,5,6,7,8,1x/7x,6,5,4,3,2,1,8,
{4} 7hx[1:3]/Cf,,2qq8[2:1],,,,1h[4:1],,E2,E3,E4,E5,E6,E7,E2/E8,
{16} 5,4,5,4,
{4} 3h[8:1]/5h[8:1],
{16} 4h[8:1]/7h[8:1],,,1hx[16:3]/5hx[16:3],,,,,2,8,2,8h[16:5],
{8} ,5,4,3,2,
{16} 7,8,
{8} 7,56,
{16} 4h[8:1]/6h[8:1],,,,2h[8:1]/5h[8:1],,,48,,3,6,,78,,12,,3,4,5,6,7,8,1,2,3x/7x,6,5,4,3,2,1,8,
{4} 4-8[8:1]/7-5[8:1],4b/7b,
{16} 1,7,1,7,4,5,4,5,3,4,2,6,5,7,3,4,1,5,2,6,3,7,4,8,5x,4,3,2,18,7,6,5,2h[16:3]/4,,,8,,,6,,
3x/4x,5,6,7,18,2,3,4,5/7h[16:3],,,1,,,3,,6,4,6,3,5,3,7,5,7,2,4,2,8,,17,,4,5,3,6,2,7,1,8,3,5,1,6,4,8,3,6,
1b,2,3,4,5,6,7,8,1x/5x,4,3,2,1qq4[4:3],8,7,6pp4[16:9],
{1} ,

{4} 4h[4:7],C,C,C,C,C,C,C,C/E3,C/E4,C/E5,C/E6,C/E7,C/E8,C/E1,8h[1:2],C,C,C,C,C,C,C,C,
Chf[2:3]/E1,E8,E7,E6,E5,5-1[8:1],,,1hx[4:3]/8x<2[4:1],,,
{8} 8,17,,
{16} 4,5,
{4} 4,
{16} 68,,,37,,,15,,
{8} 2x/8xV62[4:1],,,5b-1[8:1],,5x/8b-4[8:1],,2b>1[4:1]/8x,,2x/Cf,,,
{16} 7-4[8:1],,,3,,,2,,

{8} 1x-5[8:1]/4x,5,6,7,5x/8x-4[8:1],4,3,2,1xV35[8:1]/4x,5,6,7,5x/8xV64[8:1],4,3,2,
1x-3[8:1],8-6[8:1],1-5[8:1],8-4[8:1],1^4[8:1],8,1,
{24} 8x,7x,6x,
{8} 5x/8-2[8:1],7-5[8:1],8-4[8:1],7-3[8:1],8^3[8:1],7^4[8:1],8,7,
{16} 2x,1,2,1,3,1,3,1,4,1,4,1,4,1,4,1,
{32} 5x,6,7,8,1,2,3,4,5x,6,7,8,1,2,3,4,
{2} 1x-6[8:1]/5x-2[8:1],
{1} 1hx[1:4]/7bqq8[4:11],,,,,,,E

Re:MASTER


  • MASTER譜面のノーツの配置ミス、SLIDEの速度の修正を行いました。 -- けもがみ (2026-05-23 19:55:12)
  • FESTiVAL ver.にて、MASTER譜面の{16}4h[8:1]/6h[8:1],,,2h[8:1]/5h[8:1],,,48,,,→{16}4h[8:1]/6h[8:1],,,,2h[8:1]/5h[8:1],,,48,,の箇所の修正が行われたため、修正後の譜面に修正しました。 -- けもがみ (2026-05-23 19:56:52)
名前:
コメント:

タグ:

+ タグ編集
  • タグ:
最終更新:2026年05月23日 19:56