アットウィキロゴ

YA・DA・YO [Reborn]

アーティスト 古代 祐三「ファンタジーゾーン」

BPM EASY BASIC ADVANCED EXPERT MASTER Re:MASTER
105 2 4 9 13 13 14

EXPERT MASTER Re:MASTER
譜面制作者 譜面-100号 譜面-100号 Safata.Hz

EASY


BASIC


ADVANCED


EXPERT

(105){8}
,,18,,,2,18,,
,,18,,{32},,,7,{8}7,18,,
4,4,27,,,{32},,,7,2,,,7,{8}2,
,,27,,,8,27,,
2,,18,,{32},,,2,2,,,8,{8}18,,
7,7,18,,2,2,18,{16},2,
2-6[16:1],,,,,,,7,7-3[16:1],,,,,,,2,
2-6[16:1],,,7,7-3[16:1],,,,,,18,,1b/8b,,,,

2,,2,,3,,,4,,,4,,5,,,,
7,,7,,6,,,5,,5,5,,4,,,,
8,,8,,{32}1,,,1,,,1,,{16},2,2,,3,,,,
{8}1,1,8,8,8,7,6,6,
1,1,2,{16}2,2,,3,3,,4,,4,,
8,,8,8,7,,7,7,6,,6,6,5,,,,
1,,1,1,2,,2,8,,8,8,8,7,,7,,
1,,1,1,8,,8,8,,1,1-4[16:1]/8-5[16:1],,,,,,

2,,2,2,3,,3,4,,4,4,,5,,,,
7,,7,7,6,,6,5,,5,5,,4,,,,
8,,8,,{32}1,,,1,,,1,,{16},2,2,2,3,,3,3,
1,1,1,,8,8,8,8,8,7,6,,6,,6,,
1,,1,,2,2,2,3,,3,3,3,4,,4,4,
{32}8,,,8,{16}8,8,7,,7,6,,6,6,6,5,,,,
1,,1,1,2,,2,8,,8,8,8,7,,7,,
1,,1,1,8,,8,8,,18,1-4[16:1]/8-5[16:1],,,,,,

8,1,8,1,7,1,8,1,8,1,8,2,8,1,8,1,
7,8,7,1,8,1,8,2,1,2,8,1,8,1,8,1,
7,2,8,1,8,1,7,2,8,1,8,1,7,2,8,1,
7,1,8,1,8,2,8,1,8,1,7,1,8,1,8,1,
8,2,1,2,8,2,1,2,8,1,8,1,8,2,1,2,
8,1,8,1,7,8,7,1,8,1,8,1,7,8,7,1,
8,1,8,1,7,2,7,2,6,3,6,3,7,2,7,2,
8,3,8,3,7,2,7,2,6,1,6,1,7,2,7,2,
4,3,4,3,5,2,5,2,6,5,6,5,7,4,7,4,
5,4,5,4,6,4,5,4,5,3,5,4,6,4,5,4,
7,5,7,5,6,4,6,4,5,3,5,3,4,2,4,2,
7,3,7,3,7,4,5,4,6,2,6,2,6,4,5,4,
7,3,7,3,6,4,6,4,5b,5b,5b,4,6,4,6,4,
7,4,7,4,5,3,5,3,6,5,5,3,4,4,5,3,
6,5,6,5,4,3,4,3,4,5,4,5,6,3,6,3,
8,4,8,4,7,3,7,3,6,2,6,2,5,1,5,1,
6,3,6,3,5,4,5,4,8,5,8,5,6,3,6,3,
7,2,7,2,8,1,8,1,5,8,5,8,7,2,7,2,
1,2,1,2,8,3,8,3,7,4,7,4,6,5,6,5,
7,8,6b,8,6,1b,6,1,5b,1,5,2b,5,2,4b,3,
{1}4h[1:1],
,,
E

MASTER

(105){4}
36,4,36,4,
36,5,36,5,
{32}
2,,,5,2,,,,,,,2,5,,,2,,,,,,,,5,2,,,5,2,,,,
{8}
1,,8,,7,7,6,6,
{32}
7,,,4,7,,,,,,,7,4,,,7,,,,,,,,4,7,,,4,7,,,,
{8}
2,3,7,6,1,2,8,{32}7,,,1,
{8}8b,,,{32},,,1,{8}8b,,,{32},,,1,
8b,,,,,,,1,{8}8b,,,18,45,,

{16}
2,5,4,5,4,4,5,3,,6,5,6,2,3,2,,
1,,7,6,7,4,3,4,,3,4,6,5-2[8:1],,,,
8,,8,,7,1,2,1,,7,8,7,1,1,8,2,
7,,58,,4,5,4,5,4,5,8,,5,,2,,
6,,68,,7,7,7,1,,5,3,5,4,6,4,5,
3,4,3,4,6,5,6,5,3,4,5,6,7,,,,
5,,7,6,5,,3,4,,6,5,6,1,,4,,
3,,3,3,2,,2,2,,,18,,45,,,,

2b,5,4,5,4,4,5,3,,6,5,6,2,3,2,,
1b,,7,6,7,4,3,4,,3,4,6,5-2[8:1],,,,
8b,,8,,7,1,2,1,,7,8,7,1,1,8,2,
7b,,58,,4,5,4,5,4,5,8,,5,,2,,
6b,,68,,7,7,7,1,,5,3,5,4,6,4,5,
3,4,3,4,6,5,6,5,3,4,5,6,7,,,,
5b,,7,6,5,,3,4b,,6,5,6,1,,4,,
3b,,3,3,2b,,2,2,,,1b/8,,45,,,,

7,,6,,8,6,7,8,5,7,6,8,7,5,8,7,
1,6,8,8,7,5,8,1,6,,8,,7,,,,
2,,3,,2,4,3,1,2,4,1,3,5,2,4,3,
8,2,4,1,5,3,8,2,4,,2,,3,,,,
1,1,8,1,8,1,8,8,1,8,1,1,8,8,1,8,
3,,6,,4,6,3,5,4,6,5,3,6,4,3,,
8,8,1,8,1,1,8,8,8,1,1,1,8,1,8,8,
4,,5,,3,4,6,6,3,3,5,3,4,6,5,,

{8}
7h[16:3],6h[16:3],8h[16:3],7h[16:3],5h[16:3],6h[16:3],7h[16:3],6h[16:3],
3h[16:3],1h[16:3],2h[16:3],4h[16:3],3h[16:3],2h[16:3],1h[16:3],3h[8:1],
{16}
4,,5,6,5,4,3,4,5,4,5,6,5,4,5,,
1,,2,1,8,7,6,7,8,1,8,1,2,3,,,
2,6,2,6,3,7,3,7,2,2,6,6,3,3,7,7,
2,2,2,2,6,6,6,6,1,1,1,1,1,1,1,1,
{8}7,8,1,2,3,4,5,6,
{16}7,8,1,2,3,4,5,6,{24}7,8,1,2,3,4,5,6,7,8,1,2,

{4}14,27,58,36,
{8}25,36,47,36,{16}45,34,45,56,45,45,45,,
{4}
3-6[8:1],6-2[8:1],2-7[8:1],7-4[8:1],
4-1[8:1],1-5[8:1],5-8[8:1],8-4[1:1],
{1},,,
E

Re:MASTER

(105)
{24}3,,5,4,,,56,,,7,,7h[24:7],{12},8b,8b,8b,8b,,{16},,
6,6,{24}6^4[16:1],,7,5,,5,{4},{24},,3,3,,,
45,,6,5,,,,,5,6,,{4}5,{24}7,5,,6,4,,,
{6}3/5-8[4:1],1h[24:11],,{24},,,{4}8,{24}8b,,1b,,,{4}2b,,,
{24}3,,3,4,,,2h[3:2]/5,,,,{2},{24}4,,,,,3h[2:1],
{4}5b,{24},,,,,5h[2:1],{4}4b,{24},,,,,2h[4:1],
3b,,,,,4,2b,,,{32}4,4,4,4,4v1[8:1]*v7[8:1],,,35,,,,,{4}4b,

{24}2b/8b,,1,7,,7,5,,5,6-2[16:1],,6,{2}2-7[16:1],
{24}4b/5b,,5,3,,3,1,,1,2-6[16:1],,2,{2}6-3[16:1],
{24}8b,,,6,,6,5,,5,8,,8,1-4[16:1],,2,4-1[16:1],,,{4}6,
{24}7b,,7,8,,3,4,,4,1,,1,8-5[16:1],,7,5-8[16:1],,,{4}3,
{24}6b,,,3,,3,4,,4,3,,8,1-5[16:1],,3,4,,7,1,,,6,,6,
5,,3,4,,6,2,,4,3,,8,2-6[16:1],,7,1,,6,{16},8h,,,
{24}1/5b,,3,4,,4,3,,6,5,,4b/7,,,3,4,,4,25,,,2,1,8,
7/3b,,,7,8,1,2b/6,,,48,,26,{8}2-5[16:1]/6-1[16:1],1b/5,,,

{24}2b/8b,,1,7,,7,5,,5,6-2[16:1],,6,{8}2-7[16:1],8,8h[8:1],,
{24}4b/5b,,5,3,,3,1,,1,2-6[16:1],,2,{8}6-3[16:1],4,4h[4:1],,
{24}8b,,,8,,6,5,,5,8,,8,1-4[16:1],,1,4-1[16:1],,,{4}2h[8:1],
{24}7b,,7,8,,3,4,,4,1,,1,8-5[16:1],,8,5-8[16:1],,,{4}7h[8:1],
{24}6b,,,3,,3,4,,4,3,,8,1-5[16:1],,3,4,,7,1,,,6,,6^1[48:5],
5,,3,4,,6,2,,4,3,,8,2-6[16:1],,4,1,,6,{16},8h,,,
{24}1/5b,,3,4,,4,3,,6,5,,7,4b/7,,3,4,,4,25,,,2,1,8,
7/3b,,,7,8,1,2b/6,,,1b/8,,26,{8}2-5[16:1]/6-1[16:1],48,26,,

{24}3V51[4:1]/8,,2,1,,1,3,,8,,,8,7,,7,3,,3,4,,4,1,,1,
8-4[8:1],,8,4-6[8:1],,3,8,,2,1,,1,8^3[8:1],,8,{8}7,5,5,
{24}6V48[4:1]/1,,7,8,,8,6,,1,,,1,2,,2,6,,6,5,,5,8,,8,
1-5[8:1],,1,5-3[8:1],,6,1,,7,8,,8,1^6[8:1],,1,{8}2,4,4,
{24}3h[24:5]/5,,5,,,4,4h[12:1],,5,5h[12:1],,6,6,,5/7h[8:1],,,6,6h[12:1],,5,5,,46,
46,,7-3[24:1],3-7[16:1],,6,{4}4,{24}1,,2-6[24:1],6-2[16:1],,3,{4}5,
{24}7,,7h[8:1]/1,,,8,8h[12:1],,1,1h[12:1],,2,2,,2h[8:1]/8,,,1,1h[12:1],,8,8,,17,
{8}17,46,{24}34,,4/5h[8:1],,,4,6,5,6,3,4,3,7,4,5,{8}1b,

5h[12:1]/6h[12:1],{24}67,,8,8h[12:1],,7,7,,5,5h[12:1],,6,6h[12:1],,7,7h[12:1],,6,{8}6,
5h[12:1]/7h[12:1],{24}68,,57,5h[12:1]/7h[12:1],,,68,,7,7h[12:1],,6,6h[12:1],,5,5,,,18,,2,
2h[12:1],,1,1,,,2h[12:1]/3h[12:1],,,34,,2,2h[12:1],,1,1h[12:1],,4,4h[12:1],,2,2,,,
23,,4,4h[12:1],,2,2,,1h[8:1]/3,,,2,2h[12:1],,4,4h[12:1],,1,1,,2/3h[8:1],,,2,
2,,,24,,3,4,,4,3,,6,{16}5b,5b,{24}5b,,46,46,,35,,,2,
3,4,5,4,5,6,7,8,1,2,3,7,6,5,4,5,4,3,2,1,2/4h[8:1],,,3,
45,,,57,,8,6,,6,4,,4,2,,2,8,,8,6,,17,1-5[16:1]/7,,{48}3,4,
{8}3,1b/5b,{16},6h[48:7],{24},,2,3,4,5,63,4,5,63,4,5,63,4,5,

6/3-6[8:1],,27,,,7,8,,8,7,,7,5-8[8:1],,34,,,2,1,,1,2-6[8:1],,3,
1,,,28,,,,,8,,,6,5,3,4,6,4,3,{4}2/8-4[12:1],
{24}18,,2-6[48:5],3,,7,5,,2,6^1[8:1],,5,4,,4,5,,5,6,,,28,,7,
7-4[16:1],,4,4-1[16:1],,1,1-6[16:1],,6,6-3[16:1],,3,3-8[16:1],,2,2,,7,{4}7s3[2:3],
{48}7b,,,,,8b,,,,,8b,,,,,8b,,,,,8b,,,,,8b,,,,,{8}8b,8b,8b,{1}8b,,,,E

  • 追加しました。修正等ありましたらよろしくお願いします。 -- けもがみ (2025-11-27 15:04:39)
名前:
コメント:

タグ:

+ タグ編集
  • タグ:
最終更新:2026年10月04日 09:44