BASIC
(95.5){1},,,,,
{1}4,
{1}4,
{4}5,(87.0),,(78.0),
{4}5hx[621:718],(69.0),,(61.0),
(63.0){4},(191.0),,,
{2}4,4,
{1}4,
{2}3,3,
{1}3,
{1}2h[1:1],,
{1}2h[1:1],,
{2}1,1,
{1}1,
{2}8,8,
{1}8,
{1}7h[1:1],,
{1}7h[1:1],,
{1}6,
{1}6,
{1}5,
{1}5,
{1}4,
{1}4,
{1}4/5,
{1}4b/5b,
{1}6,
{1}6,
{1}7,
{1}7,
{1}8,
{1}8,
{1}1/8,
{1}1b/8b,
{1}B1,
{1}B8,
{1}B7,
{1}B6,
{1}B5,
{1}B4,
{1}B3,
{1}B2,
{1}B1/B8,
{1}B2,
{1}B3,
{1}B4,
{1}B5,
{1}B6,
{1}B7,
{1}B1/B8,
{2}1,1,
{1}1,
{2}2,2,
{1}2,
{2}3,3,
{1}3,
{2}4,4,
{1}4x,
{1}B5,
{1}B4,
{1}B6,
{1}B3,
{1}B4/B5,
{1}B3/B6,
{1}Chf[1:1],,,
{4}1,1,1,,
{4}8,8,8,,
{4}7,7,7,,
{4}6,6,6,,
{1}5h[2:1],
{1}4h[2:1],
{2}5/6,5/6,
{1}5x/6x,
{4}5,5,5,,
{4}4,4,4,,
{4}3,3,3,,
{4}2,2,2,,
{1}1h[2:1],
{1}8h[2:1],
{2}1/2,1/2,
{1}1x/2x,
{4}2,2,2,,
{4}3,3,3,,
{4}4,4,4,,
{4}5,5,5,,
{1}6h[2:1],
{1}7h[2:1],
{1}8-4[4:3],,
{4}3,3,3,,
{4}2,2,2,,
{4}1,1,1,,
{4}8,8,8,,
{1}1h[2:1],
{1}8h[2:1],
{1}1-5[4:3],,
{4},{1}4hx[1:2]/5hx[1:2],,,
E
ADVANCED
(95.5){1},
{2}E6,E5,
{1}E4,
{2}B4,B5,
{1}B3/B6,
{2}E7,C1,
{2}E3,E2,
{4}B1/B8,(87.0),B2/B7,(78.0),
{4}B3/B6,(69.0),Ch[4:3],(61.0),
(63.0){4},(191.0),,,
{4}3x,3,4,4,
{4}3,3,2/4,,
{4}6,6,5,5,
{4}6,6,5/7,,
{2}3hx[4:1]/4hx[4:1],3/4,
{2}5hx[4:1]/6hx[4:1],5/6,
{4}3,3,6,6,
{4}5,4,3/6,,
{4}2x,2,1,1,
{4}2,2,1/3,,
{4}7x,7,8,8,
{4}7,7,6/8,,
{2}5h[4:1]/6h[4:1],4/7,
{2}3h[4:1]/4h[4:1],2/5,
{1}1-5[2:1],
{4}6,6,5x/7x,,
{2}5h[4:1]/6h[4:1],5/6,
{4}4,4,4/5,,
{2}3h[4:1]/4h[4:1],3/4,
{4}5,5,4/5,,
{4}3h[4:3],4,4,4,
{4}3/4,4/5,5/6,,
{4}6h[4:3],5,5,5,
{4}4/5,4/5,3/6,,
{2}3h[4:1]/4h[4:1],3/4,
{4}5,4,4/5,,
{2}5h[4:1]/6h[4:1],5/6,
{4}5,4,3/6,,
{4}2h[4:3],1,1,1,
{4}1/2,1/8,7/8,,
{4}7h[4:3],8,8,8,
{4}1,1/8,2x/7x,,
{1}1x-5[4:3],
{2},6,
{1}6-1[4:3],
{2},2,
{1}2-5[4:3],
{2},6,
{1}4h[2:1]/5h[2:1],
{4}4,5,3/6,,
{1}4x-8[4:3],
{2},7,
{1}7-4[4:3],
{2},3,
{1}4-1[4:3]/5-8[4:3],
{2},2/7,
{2}1h[1:1],8h[2:1],
{4},2b/7b,,,
{2}E4,E5,
{2}E6,E7,
{1}Ch[1:1],,
{2}E6,E5,
{2}E4,E3,
{1}Ch[1:1],,
{4}E4,B3,B2,,
{4}E6,B6,B7,,
{2}E2/E8,E3/E7,
{1}E4/E6,
{4}B7,C1,B3,,
{4}B2,C1,B6,,
{2}B4/B5,B3/B6,
{1}Chf[1:1],
{4},,,2x/7x,
{4}2b,1/2,7,7/8,
{4}6,5/6,4/7,3/8,
{4}2,1/2,7,7/8,
{4}2,1/2,3/8,4/7,
{4}6h[4:1],5x,4/7,,
{4}3h[4:1],4,2/5,,
{4}6,4/5,3,4/5,
{4}3/6,2/7,1x/8x,,
{4}3,3/4,6,5/6,
{4}3,3/4,2/5,1/6,
{4}7x,7/8,2,1/2,
{4}7/8,1/6,2x/5x,,
{2}1hx[4:1]/2hx[4:1],3/8,
{2}7hx[4:1]/8hx[4:1],1/6,
{1}1-5[4:3]/8-4[4:3],
{4},,3x/6x,3x/6x,
{4}2b,1/2,3,3/4,
{4}6,5/6,4/7,3/8,
{4}2,1/2,7,7/8,
{4}5/6,4/7,3x/8x,,
{4}3/4,2x,1/8,1/8,
{4}7,6,4/5,4/5,
{1}4-8[4:3]/5-1[4:3],
{2},2x/7x,
{4}7x/8x,7/8,5/6,5/6,
{4}3/4,3/4,1/2,1/2,
{4}3x/4x,5/6,7/8,7/8,
{4}5/6,3/4,2b/5b,,
{4}1,2,3,4,
{4}5,6,7,1/8,
{4}2/7,2/7,3/6,3/6,
{8}5,5,5,,4,4,4,,
{4}3/6,{1}2bV41[4:7]/7bV58[4:7],,,
E
EXPERT
(95.5){1},
{1}5/4>5[4:3],
{4},,4,5,
{1}6<5[4:3],
{2},4h[4:1]/5h[4:1],
{2}E5,C1,
{4}B2/B3,B6/B7,C1,1^4[2:1]/8^5[2:1],
{4},(87.0),,(78.0)4-1[16:5]/5-8[16:5],
{4},(69.0),Chf[4:3],(61.0),
(63.0){4},(191.0),,,
{8}5/7,,5/6,5/6,,4/7,,3-5[8:1],
{8},7,,6-4[8:1],,1,1,,
{8}2/4,,3/4,3/4,,2/5,,3-5[8:1],
{8},7,,6-4[8:1],,2,,3h[8:3],
{8},,4,,3,4,5,6h[4:1],
{8},8h[4:1],,1h[4:1],,3,3,,
{8}3/4,,5/6,5/6,,8x<3[8:3],,,
{2},1-5[8:1],
{8}7,,5/6,5/6,,4/7,,3-5[8:1],
{8},7,,6-4[8:1],,1,1,,
{8}2/4,,3/4,3/4,,2/5,,6-4[8:1],
{8},2,,3-5[8:1],,7,,6,
{8}6,,5/7,,7,8,1,2-5[8:1],
{8},,,,6,5,4,3-8[8:1],
{8},,,,5/6,5/6,5/6,,
{1}B3/B4/B7/B8/Chf[4:3],
{8},,1b/8b,,6h[8:7],,5,5,
{8},4,,5h[8:3],,7,7,,
{8}5/6,,4/7,,5h[8:7],,6,6,
{8},7,,6h[8:3],,5,5,,
{8}3/4,,2/5,,4,5,6h[4:1],,
{4}8h[4:1],1h[4:1],3h[4:1],6,
{4}B4/B5,E2/E8,C1,E3/E7,
{2}8-4[8:1],1-5[8:1],
{8}8,,1b/6b,,3h[8:7],,4,4,
{8},5,,4h[8:3],,2,2,,
{8}3/4,,2/5,,4h[8:7],,3,3,
{8},2,,3h[8:3],,4,4,,
{8}5/6,,4/7,,5,4,3h[4:1],,
{4}1h[4:1],8h[4:1],6h[4:1],3,
{4}B4/B5,E2/E8,C1,E3/E7,
{16}7,,7,,2,,2,,8,1,8,1,8,,,,
{1}2b-5[8:1]/7b-4[8:1],
{16}7/5hx[16:3],,,6hx[16:3],,,5hx[16:3],,,4hx[16:3],,,{4}3>6[4:3],{1},
{2}1^4[4:1],8^5[4:1],
{4}2>7[2:1],,,8,
{4}8<3[2:1],,,2,
{4}2>7[2:1],,,8,
{2}8-4[4:1],3^6[4:1],
{4}8,2b/7b,,,
{16}2/4hx[16:3],,,3hx[16:3],,,4hx[16:3],,,5hx[16:3],,,6^3[8:3],,,,
{4},,,1/2^7[8:3],
{4},,,1/6,
{8}7,7,8,8,7,,1b/6b,,
{8}2,2,1,1,2,,3b/8b,,
{8}1/8,1/8,1/8,1/8,1^4[4:1]/8^5[4:1],,,,
{4},C1f/E3/E7,,,
{4}5h[4:5],E5,B3,B2,
{4}E1,8-4[4:1],,,
{4}3h[4:5],E5,B6,B7,
{4}E1,1-5[4:1],,,
{4}6h[4:5],E5,E4,E3,
{4}E2,8-4[4:1],,,
{4}2h[4:5],4,4,4,
{2}4h[4:1],B1/C1f/B5,
{8}6,6,5,,5/6,,4/7,,
{8}3,3,4,,3/4,,2/5,,
{8}7,7,6/8,,2,2,1/3,,
{4}7-5[8:1],1-3[8:1],8-4[8:1],,
{8}3,3,3,3,3,,1x/2x,,
{8}6,6,6,6,6,,7x/8x,,
{8}3,4,2x/5x,,6,5,4x/7x,,
{4}7x/8x,5x/6x,3x/4x,1x/2x,
{1}E3/E7/Chf[2:1],
{8}1b/8b,,3/4,5/2h[4:1],,1,,3x/8x-4[8:1],
{8},2,,6x/1x-5[8:1],,7,7,,
{8}1x/8x,,5/6,4/7h[4:1],,8,,6x/1x-5[8:1],
{8},7,,3x/8x-4[8:1],,2,,1h[8:3],
{8},8,8,,2,1,8,7h[4:1],
{8},5h[4:1],,4h[4:1],,2,2,,
{8}5x/6x,,7/8,7x/8x,,8x/1x>6[8:3],,,
{8},,,,E7,C1,E3,,
{8}1b/8b,,5/6,4/7h[4:1],,8,,1x/2x-5[8:1],
{8},7,,8x/7x-4[8:1],,2,2,,
{8}1x/8x,,3/4,5/2h[4:1],,1,,8x/7x-4[8:1],
{8},3,,1x/2x-5[8:1],,6,,7,
{8}7,,6/8,,5,4,3,2h[4:1],
{8},1,1,,4,5,6,7h[4:1],
{8},8x,8x,8x,7x/8x,,1b/6b,,
{1}B1/B2/B5/B6/Chf[2:1],
{8}1b/8b,,5/6,4/7,,2-5[8:1]/6-1[8:1],,,
{8},3-8[8:1]/7-4[8:1],,,,2x/6x,2x/6x,,
{8}8b,,3/4,2/5,,3-8[8:1]/7-4[8:1],,,
{8},2-5[8:1]/6-1[8:1],,,,3/7,,E1/C1f/E5,
{8},,,,6,5,4,3h[4:1],
{8},1h[4:1],,8h[4:1],,6,6,,
{8}1b/5b,,2x/6x,2b/6b,,4b/8b,,1b^6[8:1]/5b^2[8:1],
{2},C1f/E3/E7,
{16}1b/8b,,,,3,4,3,,6,5,6,,3,4,3,,
{16}6,5,6,,3,4,3,,6,5,6,,2b/7b,,,,
{16}1x,8x,1x,8x,1x,8x,1x,8x,1x,8x,1x,8x,1x,8x,1b,,
{8},7-3[8:1],,2-6[8:1],,8-4[8:1],,3,
{8}3,,2/4,,7,8,1/6,1/6h[4:1],
{8},5,5,,2,1,3/8,8/3h[4:1],
{16},,4,,4,,4,,1,8,1,8,1b,,,,
{8}7/8,7/8,1/6,1/6,2/5,,C1f/E3/E7,,
{4},{1}8b/1b>8[4:7],,,
E
MASTER
(95.5)
{4} ,,,
{16} 5,4,3,2,
{1} 1h[1:1]/5qq8[2:1],
{16} 8h[1:1],,1,2,
{32} 3,,,3,,,3,,
{8} 4,5,6,7,
{16} 1h[16:3],,,5h[16:3],,,4q5[8:3],,
{4} ,,7h[2:1],,
{16} 2x,,18,,7,2,6,3,
{4} 4h[8:7]/5h[8:3],,6h[8:5],,8h[8:3],1h[8:3],3h[8:5],
{16} 4,5,6,7,
{4} 8h[8:1],
(90) 4h[8:1]/5h[8:1],
(85) 1h[8:1]/6h[8:1],
(80){12} 8,1,8,
(75){4} 1^4[8:1]/8^5[8:1],
(70) ,
(60) 3h[40#12:5]/6h[40#12:5],
(40) ,
(191)
{4} ,B1/B2/B7/B8,4-1[8:1]/5-8[8:1],4x/5x,
{8} 27,,28,2-6[8:1]/8,,8-4[8:1],,1-5[8:1],,7-3[8:1],,8-4[8:1],,5,6,7,
48,,17,1/7-3[8:1],,1-5[8:1],,8-4[8:1],,2-6[8:1],,1-5[8:1],,4,,
3h[1:1],,,B4/B5,,1,8,7,6h[4:1],,1h[4:1],,8,,36,36,,
B1/B2/E2/E3,,45,B7/B8/E7/E8,,45,,B1/B2/B7/B8/Cf,,,,,
{16} 45,,4,6,3,7,2,8,
{8} 1x,,17,1/7-3[8:1],,1-5[8:1],,8-4[8:1],,2-6[8:1],,1-5[8:1],,4,3,2,
15,,28,2-6[8:1]/8,,8-4[8:1],,1-5[8:1],,7-3[8:1],,8-4[8:1],,5,,
{16} 7,6,
{8} 5h[2:1],,B3/B4,,1,2,3,4h[8:5],,,B5/B6,,8,7,6,5h[4:3],,1,1,1,1,1,
{16} 1,8,1,8,1,2,3,4,1,8,7,6,1-6[8:1],2,3,4,
{4} 1x/5x,27,B3/B6/Cf,
{8} 7,8,1,2h[4:1],,4h[4:1],,6h[8:3],,8,8,,27,,B1/B8/C,,6,5,4,3h[8:3],,6,6,,
{16} 2,8,2,8,1,7,1,7,
{4} 1-5[8:1],1b/8b,
{8} 7,7,3,3,
{16} 6,5,6,,3,4,3,,6,5,6,,3,4,3,,
{8} 7-3[8:1],7,8,,1-5[8:1],1,8,,7,
{16} 1,8,1,,27,,3,5,3,5,4,6,4,6,
{4} 4,B3/B6/Cf,
{8} 2,1,8,7h[4:1],,5h[4:1],,3h[8:3],,1,1,,27,,B1/B8/C,,3,4,5,6h[8:3],,3,3,,
{16} 7,1,7,1,8,2,8,2,
{4} 8-4[8:1],1b/8b,
{8} 2,2,6,6,
{16} 3,4,3,,6,5,6,,3,4,3,,6,5,6,,
{8} 2-6[8:1],2,1,,8-4[8:1],8,1,,
{16} 2,7,1,8,2,7,1,8,
{24} E2,B2,B3,E4,E8,B7,B6,E6,1x,B1,C,B5,
{8} 8xw4[8:1],,8b,,,8,1,2,
{16} 35,,,46,,,24,,,57,,,1,8,1,8,
{8} 1pp5[2:1],,6,6,,7,7,,8qq4[2:1],,3,3,,2,2,,
1>5[8:3],,5,5q1[4:1],,7,7,,5<1[8:3],,1,1q5[4:1],,3,3,,
1p8[2:1],,5,5,,4,4,,18,,
{16} 8,7,6,5,8,1,2,3,8,7,6,5,
{8} 4w8[8:1]/8,,4x,,,1,8,7,
{16} 46,,,35,,,57,,,24,,,8,1,8,1,
{4} 8h[4:1],
{16} 1,7,1,7,2,6,2,6,3,5,3,5,
{4} 4h[4:1],
{16} 5,3,5,3,6,2,6,2,7,1,7,1,
{8} 8-4[4:1],,2,2,2,2,
{16} 2,4,2,4,
{8} 1-5[4:1],,7,7,7,7,
{16} 7,5,7,5,
{4} 8h[4:1],
{16} 1,8,2,7,3,6,4,5,
{4} 4,2b/7b,
{32} 8,7,6,5,4,3,2,1,8-4[8:1],7,6,5,4,3,2,1,
{4} 8x,3h[1:2],5,6,6,7,7,8,
{8} 8,B7,
{4} 6h[1:2],2,1,1,8,8,
{16} B7,,,E1,,,B2,,
{4} 4h[1:2],5,6,6,7,7,8,
{8} 8,B7,
{4} 5h[1:1],3,2,
{8} 1,B2,4h[2:1],,8,B7,
{16} 5b,,,1b/6b,,,3b/8b,,2,1,2,,7,8,7,,
{8} 18,1^4[8:1]/8^5[8:1],,,,,
{16} 46,,,35,,,57,,,24,,,7,8,7,8,7,,2,1,2,1,2,,
{32} E8,B7,B6,E6,E2,B2,B3,E4,
{4} 8x,
{16} 48,7,6,5,8,1,2,3,8,7,6,5,
{8} 4,,34,34,23,23,12,12,18,18,78,78,67,67,56,56,4x/5x,
{16} 3,4,3x,,6,5,6x,,2,4,2x,,7,5,7x,,1,8,2,7,3,6,4,5,4,5,
{32} E4,B3,B2,E2,E6,B6,B7,E8,
{4} C,,1-5[8:1],
{32} 1x,B1,C,B5,
{8} ,
{4} 3x/7x,
{8} 26,2-7[8:1]/6,,4-8[8:1],,1-5[8:1],,6-3[8:1],,8-4[8:1],,5,
{16} 6,2,7,1,
{8} 8,,37,3/7-2[8:1],,5-1[8:1],,8-5[8:1],,3-6[8:1],,1-5[8:1],,4,,3h[1:1],,,B4/B5,,1,8,7,6h[4:1],,1h[4:1],,8,,36,36,,
B1/B2/E2/E3,,45,B7/B8/E7/E8,,45,,B1/B2/B7/B8/Cf,,,,,
{16} 45,,4,6,3,7,2,8,
{8} 1x,,37,3/7-2[8:1],,5-1[8:1],,8-4[8:1],,3-6[8:1],,1-5[8:1],,4,
{16} 3,7,2,8,
{8} 1,,26,2-7[8:1]/6,,4-8[8:1],,1-5[8:1],,6-3[8:1],,8-4[8:1],,5,,
{16} 7,6,
{8} 5h[2:1],,B3/B4,,1,2,3,4h[8:5],,,B5/B6,,8,7,6,5h[4:3],,1,1,1,1,1,
{16} 1,8,1,8,1,2,3,4,1,8,7,6,1-6[8:1],2,3,4,
{4} 1x/5x,2b/7b,B3/B6/Cf,
{8} 27,2/7-3[8:1],,7x/8-4[8:1],,1-5[8:1]/8x,,1x/2-6[8:1],,2x/4x,
{16} 5,1,6,8,
{8} 7h[8:3],,8,8,,2-6[8:1]/7,,1-5[8:1]/2x,,1x/8-4[8:1],,7-3[8:1]/8x,,5x/7x,,
4/6h[1:1],,,B1/B8/E1,,4,3,2,1h[4:1],,8h[4:1],,3,,18,18,,
B7/B8/E7/E8,,45,B1/B2/E2/E3,,45,,B1/B2/B7/B8/Cf,,,,,
{16} 45,,4,6,3,7,2,8,
{4} 1x,
{16} E7,B6,B5,E5,E1,B1,B2,E3,E8,B7,B6,E6,E2,B2,B3,E4,E1,B8,B7,E7,E3,B3,B4,E5,6x,3x,6x,3x,
{4} 6x,
{16} E2,B2,B3,E4,E8,B7,B6,E6,4x,5x,
{4} 4x-1[8:1],4b/8x-5[8:1],2x-6[8:1]/8b,2b/7x,
{16} 4,5,
{8} 4h[2:1],,B1/B2/Cf,,8,7,6,5h[8:5],,,B7/B8/Cf,,4,3,2,1h[4:3],,8,8,8,8,8,
{16} 8,1,8,1,8,7,6,5,8,1,2,3,8-3[8:1],7,6,5,
{4} 4x/8x,B3/B4/B5/B6/Cf,2xqq5[2:3]/7xpp4[2:3],,,
{1} ,,,E
Re:MASTER
最終更新:2026年04月05日 22:11