BASIC
ADVANCED
EXPERT
(103)
{2}3h[2:1],4h[2:1],5h[2:1],6h[2:1],
5h[2:1],4h[2:1],{4}E3,E5,E7,B4/B5,
{8}8,7,6h[4:1],,5,6,47,,1,2,3h[4:1],,4,3,25,,
7,8,1h[4:1],,8,1,{4}27,B3/E4,B5/E6,B1/E2,B7/E8,
{8}3,3,24,,1-5[8:1],1,8,,6,6,{4}5/7<8[8:3],,,
{8}3,4,25,,6,5,47,,{16}2h[16:3],,,3h[16:3],,,{8}4-1[8:1],,8,8,,
3,3,6,6,2-5[8:1],2,,,6,6,3,3,7-4[8:1],7,,,
3,2,1h[2:1],,6,7,8h[1:1],,4,,4,,4,4,4x,,
2b/7b,3,45,6,7^4[8:1],8,1,,34,2,56,7,8^5[8:1],1,2,,
15,15,48,48,15,48,1hx[4:1]/8x,,8,34,1,56,{2}4x^1[8:1]/8x^5[8:1],
{8}78,6,45,3,12,38,47,,25,3,47,6,2/5-8[8:1],3,4,,
{2}E2,E8,{4}1h[8:1]/2h[8:1],7h[8:1]/8h[8:1],{8}45,45,2b/7b,,
3,4,5h[24:5]/7h[24:5],,,E5,E4,E3,4,3,2h[24:5]/4h[24:5],,,E5,E6,E7,
4,5,3h[24:5]/6h[24:5],,,E5,C,E1,2h[24:7],,7h[4:1],,,1x/8x,1x/8x,2x/7x,
3h[2:1],4,5,6,6h[2:1],5,4,3,2h[2:1],4,5,6,7h[2:1],5,4,3,
1h[2:1],4,5,6,8h[2:1],5,4,3,1,2hx[8:1]/4hx[8:1],,5hx[8:1]/7hx[8:1],,3x/6x,1b/8b,,
{2}E4,E6,4pp4[2:1]*qq4[2:1],,E6,E4,{4}6h[4:1],5h[4:1],4h[4:1],3,
34,35,36,37,56,46,36,{8}26,26,
7,6,5,4,3,2,1>8[2:1],8,{2},Cf,{8}4/5h[4:1],4,{24}4,,5x,4x,,,
{8}2b/7b,6,45,3,1/2^5[8:1],8,7x,,6,5,34,2,1^4[8:1]/8,7,6x,,
6,57,3,24,1-4[8:1]/5-8[8:1],15,,,2,56,7,34,{2}1x^4[8:1]/5x^8[8:1],
{8}12,3,45,6,78,16,25,,47,6,25,3,4-1[8:1]/7,6,5,,
{2}E8,E2,{4}7hx[8:1]/8hx[8:1],1hx[8:1]/2hx[8:1],{8}5x/6x,4x/7x,3x/8x,1x/2x,
3h[8:7]/8b,,6,6,7,6,5,4,2/5h[8:3],2,4,4,36,27,18,,
2/4h[8:5],2,1,1,3,3,2x/5x,,5h[8:5]/7,7,8,8,6,6,4x/7x,,
25,4,25,3h[2:1],4,5,6,7,47,5,47,6h[2:1],5,4,3,2,
{4}1-4[4:1],5,8-5[4:1],4,{8}1,1,18,18,27,36,1b/8b,,
{4}2h[4:3],,7h[4:1],,E1,C,E5,,
{8}45,3,2h[4:1],,1,2,38,,45,6,7h[4:1],,8,7,16,,
27,1,8h[4:1],,1,8,27,,{12}4,4,4,6,6,6,2,2,2,8,8,8,
{1},,,
E
MASTER
(103)
{8}3^6[4:1],3,{4},E4,E5,{8}6^3[4:1],6,{4},E6,E5,
{8}3^6[4:1],3,{4},E4,E5,{12}6,5,7,3,4,2,6,5,7,{8}36,{24},,8,
{8}1,1,24,{24}5,,5,4,,6,{8}5,57,{24},,1,
{8}8,8,57,{24}4,,4,5,,3,{8}4,24,{24},,8,
{8}1,1,24,{24}5,,5,4,,6,{8}5,57,{24},,1,
{12}8,57,4,35,2,1,28,7,6,35,2,1,
{8}8b,,4/6h[8:1],{24}5,,5,6,,6,{8}4,3/5pp5[4:1],,
1,2,3h[8:1],{24}4,,4,3,,3,{8}5,4/6-3[8:1],,
2-7[8:1],,6h[8:1],{24},,5,6,,6,{8}4,3-7[8:1]/5-1[8:1],,
,,3h[8:1]/5,{24}4,,4,3,,3,{8}5,46,E6,
{24}3,,3,1,,1,8q1[4:1],,8,6,,,{2},
{24}7,,7,5,,5,4pp4[4:1]*qq4[4:1],,4,2,,,{8},,,{24},,6,
5,,5,{8}7,48,{24}3,,3,4,,4,{8}2,1/5>6[8:3],37,,,,,E5,E3/E7,E4/E6,,
3-8[8:1],4,5-2[8:1],6,7-4[8:1],8,1-6[8:1],2,3-8[8:1],4,5-2[8:1],6,7,8,1,36,
27,B4/B5/E4/E6,18,B2/B7/E2/E8,18,18,3b/6b,{24},,4,
5,,5,4,,4,7p2[8:1],,7,1,,1,{4},1x/8x,
{8}3/7-3[8:1],3-7[8:1]/7,,,1^4[8:1],28,,,
2-6[8:1]/6,2/6-2[8:1],,,8^3[8:1]*^5[8:1],26,,,
{4}2h[2:1]/6h[2:1],,,{8}45,36,{24}18,,7,5,,2,4,,6,5,,3,{8}4^1[8:1]*<8[8:1],45,,,
1x/8x,1x/8x,{24}7,,7,5,,5,4,,4,{8}2,14,25,
36,47,{24}3,,3,1,,1,8,,8,{8}6,58,16,
27,38,{24}2,,2,4,,4,5,,5,{8}7,58,7,
{12}56,45,34,34,45,{24}7,6,5,,3,{8}4,36,36,
2-8[8:1]/5,1,6-4[8:1],5,3-1[8:1],2,7-5[8:1],6,
4-2[8:1],3,8-6[8:1],7,5,3,2-4[8:1]/4,,
{4}2/6-8[8:1],3-5[8:1]/6,3/7-1[8:1],47,
{24}35,,,3,4,3,4,,,6,5,6,{8}5w1[8:1],37,,,
{2}1x-4[4:5],E7,C,E3,8h[2:1],{4}5,4,{12}2,3,4,7,6,5,1,3,4,8,6,5,
{4}4h[4:1]/8-3[8:1],8-5[8:1],4-8[8:1]/8,,
1-6[8:1]/5h[4:1],1-4[8:1],{8}15,{24},,5,{8}4-1[8:1],36,
7-4[8:1],7,2-7[8:1],2,5-2[8:1],5,8,8,{24}6,5,6,3,4,3,6,5,7,3,4,2,
{2}6^3[8:1],{8}3^6[8:1]/6,36,,,
{8}5q1[8:1],4,3q7[8:1],2,1q5[8:1],8,7q3[8:1],6,5q1[8:1],4,3q7[8:1],2,1,8,7,45,
36,B1/B8/E2/E8,45,B3/B6/E4/E6,{24}45,,4,{8}5,27,{24},,8,
1,,1,8,,8,3-6[8:1],,3,5,,5,{4},1b/8b,
{8}4-1[8:1]*-7[8:1],1-4[8:1]/7,,,5-2[8:1]*-8[8:1],2/8-5[8:1],,,
4v1[8:1]*^7[8:1],1^4[8:1]/7,,,5^2[8:1]*v8[8:1],2/8^5[8:1],,,
4h[8:3],,,5,36,,{24}7,,7,5,,5,4,,4,2,,2,8,,8,{8}1,36,27,{24}5<4[2:1]*>5[2:1],4,5,4,5,4,
{4},,,{8}45,3,24,6,47,6,35,2,16,,
{24}7,,7,5,,5,4,,4,2,,2,7^4[8:1],,7,{8}5,1,,
{24}2,,2,4,,4,5,,5,7,,7,2^5[8:1],,2,{8}4,8,,
{8}57,3,25,3,46,7,38,2,16,7,58,4,37,6,5-8[4:1],4,
3,,4-1[4:1],5,6,,5,5,{24}2,4,3,4,,,7,5,6,{8}5,45,18,{24}3,4,2,6,5,7,
{0.5}1h[4:7],
{8}8,8,57,{24}4,,4,5,,3,4,,2,3,,,,,8,
{8}1,1,24,{24}5,,5,4,,6,5,,7,5,,,,,1,
{8}8,8,57,{24}4,,4,5,,3,4,,2,3,,,,,8,
{12}1,24,5,46,7,8,17,2,3,46,7,1b/8b,
{1},,,
E
Re:MASTER
最終更新:2026年03月30日 22:04