アットウィキロゴ

トラフィック・ジャム

アーティスト 煮ル果実

BPM BASIC ADVANCED EXPERT MASTER Re:MASTER
130 2 6 9+ 12+ -

EXPERT MASTER Re:MASTER
譜面制作者 サファ太 はっぴー -

BASIC


ADVANCED


EXPERT

(130)
{8}5h[1:1],,,4,4,,,3,3h[1:1],,,4,4,,,,
4h[1:1],,,3,3,,,,5h[4:3],,,6,6hx[4:1],,,,
5/7h[1:1],,,6,6,,,,5h[4:3],,,6,6h[4:1],,,,
{4}5h[8:3]/6h[8:3],,56,45,3h[8:3]/4h[8:3],,34,45,
{8}6h[2:1],,,5,5h[2:1],,,7,7h[2:1],,,6,6,,,6,
6h[1:1],,,5,5,,,4,4h[2:1],,,3,3,,,,
{1}1p8[2:1]/6h[4:5],{8}7h[4:1],,,67,67,,,56,
5h[4:1]/6h[4:1],,,45,4h[4:1]/5h[4:1],,,45,3h[4:1]/4h[4:1],,,34,4h[4:1]/5h[4:1],,,,
3/4h[2:1],,3,2,2h[2:1],,4,5,5h[2:1],,2,1,1,,15,,
2h[2:1]/4,,4,5,5h[2:1],,5,4,3h[2:1],,5,6,6x,,3x/6x,,
4/7h[2:1],,3,2,2h[2:1],,7,8,8h[4:3],,4,3,3h[4:1],,,,1
{4}2h[8:1]/7h[8:1],2h[8:1]/7h[8:1],27,{8},36,{2}3h[4:1]/6h[4:1],3h[4:1]/6h[4:1],
{4}4b/5b,,,1x-7[8:1],
6-4[8:1],1-7[8:1],6,1,5h[8:1]/6h[8:1],3h[8:1]/4h[8:1],5h[8:1]/6h[8:1],3h[8:1]/4h[8:1],
5h[8:1]/7h[8:1],2h[8:1]/4h[8:1],5h[8:1]/7h[8:1],24,{8}5,5,{4}46,3x/7x,4/8-2[8:1],
3-5[8:1],8-2[8:1],3,8,3h[8:1]/4h[8:1],5h[8:1]/7h[8:1],2h[8:1]/4h[8:1],5h[8:1]/6h[8:1],
3h[8:1]/4h[8:1],5h[8:1]/7h[8:1],2h[8:1]/4h[8:1],18,{8}6,6,57,,3,3,24,,
15,6,7h[4:1],,E7,E6,E5,,5,6,7h[4:1],,E7,E6,E5,,
{4}7^5[8:1],4^2[8:1],7-5[8:1],1s5[2:1],,,6x,3b/7b,
5/6h[4:1],8,3h[4:1]/4,1,28,56,17,34,
2p7[4:1]/6,8,,18,3/7q2[4:1]/1,,18,1h[4:1]/8-5[4:5],
,,,,B2,B3,E4,5-8[4:5],,,,,B3,B2,E2,8,
1h[4:1]/8h[4:15],,2h[4:1],,E1,C,E5,E3,E1,,,,E1,C,E5,E3,
1x/8x,27,{8}6,6,5,7,4,4,35,,46,46,46,3,
3,5,5,2,2,8,8,1x,{4}1x^4[4:1],,6h[4:1],5,
{8}47,47,47,,56,,78,,7,7,1,1,6,6,4,4,
{4}5^8[4:1],,2h[4:1],1,{8}38,38,{4}38,1b/4b,,
E4,E3,E6,E7,{8}1,1,8,8,1,,2/8-2[8:1],,
{4}4-6[8:1],7-3[8:1],1,1,2h[8:1]/4h[8:1],5h[8:1]/7h[8:1],1h[8:1]/3h[8:1],6h[8:1]/8h[8:1],
2h[8:1]/4h[8:1],5h[8:1]/7h[8:1],2h[8:1]/4h[8:1],57,{8}6,6,5,7,1,1,18,,
{2}1-5[8:1]/2-6[8:1],7-3[8:1]/8-4[8:1],{4}2b/5b,4b/7b,1b/5b,3b/8b,
{8}56,56,47,,34,34,25,,{4}7h[4:1],5h[4:1],4h[4:1],2,
E3/E4,E5/E6,E7/E8,E1/E2,E3/E4,E5/E6,E7/E8,E1/E2,
3h[4:1],4h[4:1],{8}3,3,25,,6h[4:1],,5,5,47,,3/8-2[8:1],,
{4}4-6[8:1],7-3[8:1],1,1,2h[8:1]/8h[8:1],1h[8:1]/7h[8:1],2h[8:1]/7h[8:1],1h[8:1]/7h[8:1],
3h[8:1]/8h[8:1],1h[8:1]/6h[8:1],3h[8:1]/6h[8:1],1h[8:1]/6h[8:1],{8}38,7,26,3,47,6,35,,
{4}2b/6b,,,{8}4,3,3h[1:1],,,4,4x,,5,6,
6h[1:1],,,4,4,,5,4,4h[4:1],,5,45,{2}3h[4:1]/6h[4:1],
{1}B4/B5/E4/E6,,,
E

MASTER

(130)
{8}24,35,{4}4pp5[4:1]/6V82[4:1],,,3h[8:1]/5h[8:1],4h[8:1]/6h[8:1],3h[8:1]/5h[8:1],5h[8:1]/7h[8:1],
{8}57,46,{4}3p6[4:1]/5v3[4:1],,,4h[8:1]/6h[8:1],3h[8:1]/5h[8:1],4h[8:1]/6h[8:1],2h[8:1]/4h[8:1],
{8}24,35,{4}4v3[4:1]/6V84[4:1],,,3h[8:1]/5h[8:1],4h[8:1]/6h[8:1],3h[8:1]/5h[8:1],5h[8:1]/7h[8:1],
4h[4:1]/8h[4:1],{8},36,{4}3h[8:1]/6h[8:1],2h[8:1]/8h[8:1],1h[4:1]/5h[4:1],{8},26,{4}2h[8:1]/6h[8:1],3h[8:1]/5h[8:1],
26,{8},34,{16}34,,,45,,,56,,{4}5h[8:1]/6h[8:1],4qq1[8:3]/7qq4[8:3],,,
{8},14,25,36,4^1[8:1]/7^4[8:1],47,,,,14,25,36,4v6[8:1]/7v5[8:1],46,,,
,46,46,37,3-6[8:1]/7-2[8:1],,,,4-8[8:1]5-1[8:1],45,,,2h[8:1]/7h[8:1],,1h[8:1]/8h[8:1],,
1-4[8:1]/2-5[8:1],12,,,7-4[8:1]/8-5[8:1],78,,,1h[8:1]/2h[8:1],,3h[8:1]/4h[8:1],,5^2[8:1]/6p1[8:1],56,,,
,78,78,16,25,34,34,B5/E6,B3/E4,B6/E7,B2/E3,B7/E8,B1/E2,,2b/8b,,
{4}3h[8:1]/4h[8:1],5h[8:1]/6h[8:1],3h[8:1]/4h[8:1],{8}34,46,35,46,35,46,3v8[8:1]/5v8[8:1],35,,,
{4}3h[8:1]/6h[8:1],4h[8:1]/7h[8:1],3h[8:1]/6h[8:1],2h[8:1]/5h[8:1],{8}36,47,36,25,3-1[8:1]/6-8[8:1],36,,,
18,36,4^1[8:1]*v1[8:1]/5,45,,,,37,37,,26,,1q5[8:1]/5q1[8:1],15,1V75[2:1]/5V31[2:1],,
{4}1b/5b,,,1-5[8:1]/8-6[8:1],
1-3[8:1]/8-4[8:1],1-5[8:1]/8-6[8:1],1b/8b,{8}24,18,57,18,24,18,57,18,24,18,
57,18,24,18,57,18,2-8[8:1]/6-4[8:1],26,,,3-5[8:1]/7-1[8:1],37,,,1-3[8:1]/8-4[8:1],,
{4}1-5[8:1]/8-6[8:1],1-3[8:1]/8-4[8:1],1b/8b,{8}27,36,28,45,18,26,17,34,28,37,
46,37,45,26,35,18,45,27,1x^4[8:1]/5xp8[8:1],1x/5x,,,4xq1[8:1]/8x^5[8:1],4x/8x,,,
1x/5x,1x/5x,{4}2h[8:1]/6h[8:1],2h[8:1]/6h[8:1],3h[8:1]/7h[8:1],
{8}4x/8x,4x/8x,{4}3h[8:1]/7h[8:1],3h[8:1]/7h[8:1],2h[8:1]/6h[8:1],
{8}1x/5x,1x/5x,{4}2h[8:1]/6h[8:1],3h[8:1]/7h[8:1],{8}4qq5[8:3]/8pp7[8:3],48,,,,,4x/8x,,57,46,
35,,26,26,3^8[8:1]/7^4[8:1],37,,,26,26,1-5[8:1]/8-4[8:1],27,,,4x/5x,4x/5x,
{4}3h[8:1]/6h[8:1],2h[8:1]/7h[8:1],4h[8:1]/6h[8:1],3h[8:1]/5h[8:1],2h[8:1]/7h[8:1],{8}1^4[8:1]/8^5[8:1],18,,,3b-5[8:1]/6bpp1[4:5],,
{4},,,,B2/E3,B5/E5,B3/E4,2b-8[8:1]/7bqq4[4:5],,,,,B8/E8,B3/E3,B2/E2,18,
{2}7h[4:1]/8h[4:1],5h[4:1]/6h[4:1],{8}B4/E4,B6/E6,B3/E3,B7/E7,B2/E2,B8/E8,B4/B5,,
{1}3h[4:3]/6h[4:3],{8}B4/E5,B5/E6,B2/E3,B7/E7,B2/E2,B8/E1,B5/B6,,
28,28,37,37,46,46,37,37,2h[8:1]/5h[8:1],,4h[8:1]/7h[8:1],,47,36,2pp8[8:3]/5qq7[8:3],16,
{2},{16}35,35,,4x/6x,,3/5x,3x/5,35,,46,{8}46,37,25,46,35,26,26,
1h[16:1]/8h[16:1],1h[16:1]/8h[16:1],5h[16:1]/7h[16:1],5h[16:1]/7h[16:1],2h[16:1]/4h[16:1],2h[16:1]/4h[16:1],1h[16:1]/8h[16:1],2h[16:1]/7h[16:1],
1h[16:1]/8h[16:1],1h[16:1]/8h[16:1],2h[16:1]/4h[16:1],2h[16:1]/4h[16:1],5h[16:1]/7h[16:1],5h[16:1]/7h[16:1],1h[16:1]/8h[16:1],2h[16:1]/7h[16:1],
4h[16:1]/6h[16:1],4h[16:1]/6h[16:1],3h[16:1]/5h[16:1],3h[16:1]/5h[16:1],4h[16:1]/6h[16:1],4h[16:1]/6h[16:1],3h[16:1]/5h[16:1],2h[16:1]/4h[16:1],
1h[16:1]/8h[16:1],1h[16:1]/8h[16:1],2h[16:1]/4h[16:1],2h[16:1]/4h[16:1],5h[16:1]/7h[16:1],5h[16:1]/7h[16:1],1h[16:1]/8h[16:1],1h[16:1]/8h[16:1],
{4}2b/7b,,45,45,{8}B6/E6/E7,B3/E3/E4,B7/E7/E8,B2/E2/E3,45,36,1-5[8:1]/8-6[8:1],27,
{4}1b-3[8:1]/8b-4[8:1],1b-5[8:1]/8b-6[8:1],1b/8b,{8}24,18,57,18,2-6[8:1]/4-7[8:1],18,,,57,18,
27,18,2-6[8:1]/4-7[8:1],18,,,58,58,4h[8:1]/7h[8:1],,2h[8:1]/5h[8:1],,36,27,1-5[8:1]/8-4[8:1],,
{4}1b/8b,1^4[8:1]/8^5[8:1],1b/8b,4<8[8:1]/5^8[8:1],4b^1[8:1]/5b>1[8:1],4bq5[4:1]/5b<4[4:1],4b/5b,,
{8}38,38,47,47,36,36,25,25,3h[8:1]/6h[8:1],,4h[8:1]/7h[8:1],,46,35,2qq7[4:3]/4q7[4:3],24,
{1},{8}18,35,28,46,35,35,46,57,58,58,57,57,58,15,25,25,15,58,57,56,47,,2x^7[8:1]/6xq3[8:1],,
{4}2x/6x,4x-1[8:1]/5x-8[8:1],4x/5x,{8}47,56,25,34,4-1[8:1]/7-3[8:1],56,,,25,34,
47,56,2-6[8:1]/5-8[8:1],34,,,{2}5-2[8:1]/7^4[8:1],{8}26,37,4v1[8:1]/8v5[8:1],,4-2[8:1]/8-6[8:1],,
{2},4h[8:3]/7h[8:3],{8}B5/B6,B3/B4,B1/B2,B7/B8,B4/B5,B2/B3,B1/B8,B6/B7,
{2}3h[8:3]/4h[8:3],2h[8:3]/5h[8:3],{8}B3/B4,B5/B6,B7/B8,B1/B2,B4/B5,B6/B7,1-4[8:1]/8-5[8:1],,
{1},,,
E

Re:MASTER


名前:
コメント:

タグ:

+ タグ編集
  • タグ:
最終更新:2026年03月29日 09:23