EASY
BASIC
(180.0){1},,,,
{1}1,
{1}1,
{1}8,
{1}1/8,
{2}1,1,
{2}2,2,
{2}3,3,
{1}4/5,
{2}5,5,
{2}6,6,
{2}7,7,
{1}1/8,
{2}8,8,
{2}7,7,
{2}6,6,
{2}4/5,4/5,
{2}4,4,
{2}3,3,
{1}2h[1:1],,
{1}1-4[1:1],,
{4},8-5[4:3],,,{1},
{4},1-4[4:3],,,{1},
{4},8,,8,
{4},1/8,,,
{4},7-4[4:3],,,{1},
{4},2-5[4:3],,,{1},
{4},7-4[4:3],,,{1},
{4},1,,1,
{4},1b/8b,,,
{4},2,,2,
{4},2,,,
{4},3h[1:1]/4h[1:1],,,{1},
{4},5,,5,
{4},5,,,
{4},6,,6,
{4},6b,,,
{4},7,,7,
{4},7,,,
{4},7h[1:1]/8h[1:1],,,{1},
{4},1,,1,
{4},1/8,,,
{4},8,,8,
{4},1b/8b,,,
{4},8,8,8,
{4},8,8,8,
{4},7,7,7,
{4},7,7,7,
{4},6,6,6,
{4},6,6,6,
{4},5,4,5,
{4},4/5,,,
{4},4,4,4,
{4},4,4,4,
{4},3,3,3,
{4},3,3,3,
{4},2,2,2,
{4},2,2,2,
{4},1h[1:1]/8h[1:1],,,{1},
{4},1-4[4:3],,,{1},
{4},8-5[4:3],,,{1},
{4},1,,1,
{4},2,,2,
{4},3,,3,
{4},3/4,,,
{4},5h[1:1],,,{1},
{4},4h[1:1],,,{1},
{4},5,,5,
{4},6,,6,
{4},7-3[4:3],,,{1},
{4},2,2,2,
{4},1,1,1,
{4},8,8,8,
{4},7,7,7,
{4},6,6,6,
{4},5,5,5,
{4},4h[1:1]/5h[1:1],,,{1},
{4},6,6,6,
{4},7,7,7,
{4},8,8,8,
{4},1,1,1,
{4},2,2,2,
{4},3,3,3,
{4},4h[1:1]/5h[1:1],,,{1},
{4},4/5,,4/5,
{4},4,4,5,
{4}5,{12}4h[1993:3820],,,,,,,,,,,{1},,
E
ADVANCED
(180.0){1}2>6[4:3],,
{1}7<3[4:3],,
{1}2pp6[4:5],,
{1}7qq3[4:5],,
{4}3,3,3/4,,
{4}6,6,5/6,,
{4}3,3,4,4,
{4}5,5,4/5,,
{4}3,3,3/4,,
{4}6,6,5/6,,
{4}3,3,4,4,
{4}5,4,3b/6b,,
{4}2,2,1,1,
{4}8,8,1/8,,
{4}7,7,8,8,
{4}1,1,1/8,,
{4}2,2,1,1,
{4}8,1,2/7,,
{4}8,7,6,6-3[2:1],{1},
{4}3,3h[2:1],,4h[2:1],
{4},5h[2:1],,6,
{4},5,6,4/7,
{4},3,4,2/5,
{4},3,2,1,
{4}8,7,8,1/8,
{4},6,7,8,
{4}1,8,1,2/7,
{4},6h[2:1],,5h[2:1],
{4},4h[2:1],,3,
{4},4,3,2/5,
{4},6,5,4/7,
{4},6,7,8,
{4}1,2,1,1/8,
{4},3,2,1,
{4}8,1,8,2/7,
{4},7-4[2:1]/8-3[2:1],,,
{4},1-6[2:1]/2-5[2:1],,,
{4},4,3,2,
{1}2^7[2:1],
{4},6,6,5/7,
{4},3,3,2/4,
{4},4,5,6,
{4}7,8,1,1/8,
{4},1-6[2:1]/2-5[2:1],,,
{4},7-4[2:1]/8-3[2:1],,,
{4},5,6,7,
{1}7^2[2:1],
{4},3,3,2/4,
{4},6,6,5/7,
{4},4,4,5,
{4}5,4,5,3b/6b,
{4},7,7,7/8,
{4}7/8,2,2,1/2,
{4}1/2,8,7,1/7,
{4},1,2,2/8,
{4},1,8,7,
{4}6,5,4,3/5,
{4},3,2,1,
{1}1-4[2:1]/8-5[2:1],
{4},3,3,3/4,
{4}3/4,6,6,5/6,
{4}5/6,4,3,3/5,
{4},5,6,4/6,
{4},5,4,3,
{4}2,1,8,1/7,
{4},1bpp4[4:5]/8bqq5[4:5],,,{1},
{4},4h[2:1],,5,
{4},6h[2:1],,5,
{4},4h[2:1],,5,
{4},3h[2:1],,4,
{4},3h[2:1],,4h[2:1],
{4},5h[2:1],,6,
{4},5,6,7-3[2:1],{1},
{4},4h[2:1],,5,
{4},3h[2:1],,4,
{4},5h[2:1],,4,
{4},6h[2:1],,5,
{4},5h[2:1]/6h[2:1],,,
{4},4h[2:1]/5h[2:1],,,
{4},3b<1[4:5],,,{1},
{4},1/2,1/2,7/8,
{4}7/8,1/2,1/2,3/8,
{4},7/8,7/8,1/2,
{4}1/2,7/8,7/8,1/6,
{4},5/6,5/6,3/4,
{4}3/4,5/6,5/6,4/7,
{4},3,2,1,
{1}1-4[2:1]/8-5[2:1],
{4},3/4,3/4,5/6,
{4}5/6,3/4,3/4,2/5,
{4},5/6,5/6,3/4,
{4}3/4,5/6,5/6,4/7,
{4},1/2,1/2,7/8,
{4}7/8,1/2,1/2,3/8,
{4},8b>5[4:5],,,{1},
{4},4,4,5,
{4}5,6,7,8,
{4}1,1pp4[2:3]/8qq5[2:3],,,{1},,
E
EXPERT
(180)
{4}5h[8:3]/6h[4:7],,,5,5,3,4,3,3h[4:7]/4h[8:3],,,4,4,6,5,6,
5h[8:3]/7h[4:7],,,6,8,1,2,3,2-4[8:1]/4,,5/7-5[8:1],,{8}3,3,8,8,1,,3b/6b,,
{2}2-5[8:1],7-4[8:1],{4}2h[4:1],4h[4:1],5h[4:1],7,6,57,3,3,2qq5[4:1]/4,,,4b/6b,
7-4[8:1],,2-5[8:1],,7h[4:1],5h[4:1],4h[4:1],2,3,12,6,7/8z4[2:1],,,,2b/7b,
45,{8}7,7h[4:1],,5,5,5h[8:3],,6,{4}6,18,24,45,{8}2,2h[4:1],,4,4,4h[8:3],,3,{4}3,18,57,
45,{8}7,7h[4:1],,5,5,5h[8:3],,6,{4}6,18,24,56,{8}38,3h[8:3]/8,,5,{4}5<4[2:1],,,,1b,
18,{2}1h[2:1],2h[2:1],{8}3h[8:3],,,4-7[8:1],{2},{8}1,1,{4}6,35,46,{8}8,8,{4}3,46,35,
{2}4-7[8:1],6-1[8:1],2-5[8:1],7-4[8:1],{8}3,3,{4}1,28,17,{8}6,6,{4}8,2b/7b,,
{8}5h[8:3],,,6h[8:5],,,,,7h[8:3],,,8-3[8:1],,,,,5,5,{4}2,17,28,{8}4,4,{4}7,28,17,
{2}8-3[8:1],2-5[8:1],6-1[8:1],3-8[8:1],{8}7,7,{4}5,46,12,{8}2,2,{4}4,3b/6b,,
{1}1h[4:3]/2q6[2:1],5h[4:3]/6q2[2:1],{8}2h[8:3]/7,,,3h[8:3],,,{4}4q5[2:1],,,,4b/6b,
{8}5,5,{4}3,24,28,{8}4,4,{4}6,57,17,{8}2,2,{4}8,17,35,{8}56,,,34,,,2b/7b,,
{1}7p2[2:1]/8h[4:3],3p6[2:1]/4h[4:3],{8}2/7h[8:3],,,6h[8:3],,,{4}5z1[2:1],,,,2b/8b,
{8}7,7,5,,2,2,4,,8,8,5,,1,1,4,,{4}18,27,36,45,{8}3b/4b,,,5b/6b,,,2b/7b,,
{4}18,5-1[8:1]/6-8[8:1],,{8}2,2h[4:1],,4,4,,56,,3b/8b,38,,45,{2}4-8[8:1]/5-7[8:1],{8}7,7h[4:1],,5,5,,34,,2b,2h[4:1],
,4,{2}4-8[8:1],{8}3,3h[4:1],,1,{2}1-5[8:1],{8}3b/6b,36,,45,45,,18,1>8[8:5]/8,{4},,,,2b/7b,
18,3-1[8:1]/4-8[8:1],,{8}7,7h[4:1],,5,5,,34,,1b/6b,16,,45,{2}4-2[8:1]/5-1[8:1],{8}2,2h[4:1],,4,4,,56,,7b,7h[4:1],
,5,{2}5-1[8:1],{8}6,6h[4:1],,8,{2}8-4[8:1],{8}3b>6[2:1]/6b,36,{4},,,18,{8}36,36,45,45,45,,2b/6b,,
{2}3/4h[2:1],5h[2:1],6^3[2:1],,3/4h[2:1],5h[2:1],6-3[2:1],,
3/4h[2:1],5h[2:1],6h[2:1],5h[2:1],{1}4p5[2:1],4q5[2:1],
{4}5,56,4/5h[4:1],3,4,34,4h[4:1]/5,{8}6,6,,45,45,,3h[4:1]/4,,5,5,,46,46,,4/5h[4:1],,3,3,
,34,34,,3/5h[4:1],,2,2,,4,4,,24,,1,1>8[4:5],{4},,,,,,,2b/7b,
18,5-2[8:1]/6-1[8:1],,{8}2,2h[4:1],,4,4,,56,,1b/8b,18,,34,{2}3-8[8:1]/4-7[8:1],{8}7,7h[4:1],,5,5,,34,,12,1/2h[2:1],
,4,{2}4-8[8:1],{8}3,3h[4:1],,1,{2}1-5[8:1],{8}36,3b/6b,,78,78,,34,3/4>5[8:5],{4},,,,1b,
18,3-8[8:1]/4-7[8:1],,{8}7,7h[4:1],,5,5,,34,,1b/8b,18,,56,{2}5-2[8:1]/6-1[8:1],{8}2,2h[4:1],,4,4,,56,,78,7h[4:1]/8,
,5,{2}5-1[8:1],{8}6,6h[4:1],,8,{2}8-5[8:1],{8}4b>5[2:1]/7b,4b/7b,{4},,,36,{16}4,5,4,5,4,5,4,5,{4}4,2b/7b,
{8}3,3,24,,6,6,57,,{4}6h[4:1],8h[4:1],1h[4:1],3h[4:1],6<3[2:1],,,,45,36,27,{12}18,18,1b/8b,
{1},,,,
E
MASTER
(180)
{16}6,5,6,5,6,5,4/7h[8:11],,{4},,5,5,4,3,
{16}3,4,3,4,3,4,2h[8:7]/5,,{4},,4,4,{16}5,3,5,,4,6,4,,
5,4,5,4,5,4,{8}5,,36,,4,{4}35,46,25,47,
{16}6,4,6,,3,5,3,,7,4,7,,2,5,2,,8,7,6,5,4,3,2,1,8,7,6,5,{4}34,
{8}1-4[8:1],,17,7-3[8:1],,2,{4}2-6[8:1],2/5-8[8:1],3-7[8:1]/5,3/8-5[8:1],8,
4-2[8:1],45,5-7[8:1],45,4^1[4:1],1^6[4:1],6^3[4:1],3,
{8}8-5[8:1],,28,2-5[8:1],,7,{4}7-3[8:1],4-1[8:1]/7,4/6-2[8:1],1-4[8:1]/6,1,
5-7[8:1],45,4-2[8:1],45,{16}25,,,47,,,18,,{4}2b-6[8:1]/7b,2,
{8}78,1,8,12,,3,34,2-5[8:1]/5,,6,7,8h[4:1],,5,47,36,
25,3,4,25,,7,78,1/6-1[8:1],,2,3,3,{16}4,8,3,7,{8}2,36,
45,4,5,2-5[8:1]/7,,6,7,8h[4:1],,2,37,4,{4}2-5[8:1]/7-4[8:1],27,
{8}2-7[8:1],6-3[8:1],,,,1,8,27,{16}3,4,2,,6,5,{8}7,1,1,27,,
{4}3-1[8:1]/5,34,4/6-8[8:1],56,1-5[8:1]/5,16,{8}7,7-3[8:1],,2,2,,
1-3[8:1]/7h[4:1],,1,8h[8:3],,4,4,,4-2[8:1]/6h[4:1],,4,5h[8:3],,1,1,,
{4}2-5[8:1]/7,2/7-4[8:1],1-5[8:1]/7,18,7^2[4:1],2^5[4:1],5^8[4:1],8,
1,{8}2,2^4[8:1]/8h[8:3],{2},{8}8,,1,1^6[8:1]/7h[8:3],{2},
{8}4/8-4[8:1],,28,2-5[8:1],,6,6-1[8:1],,26,,4,4-1[8:1],,7,7,,
2h[4:1]/8-6[8:1],,8,1h[8:3],,5,5,,3h[4:1]/5-7[8:1],,5,4h[8:3],,8,8,,
{4}2/7-4[8:1],2-5[8:1]/7,2/8-4[8:1],18,2^7[4:1],7^4[4:1],4^1[4:1],1,
8,{8}7,1h[8:3]/7^5[8:1],{2},{8}1,,8,2h[8:3]/8^3[8:1],{2},
{8}1-4[8:1],8,7,6-1[8:1],5,4,3,,8-5[8:1],1,2,3-8[8:1],4,5,6,,
1-6[8:1],,1,8-3[8:1],,8,{4}4^1[8:1],4,{16}8,7,6,5,{4}3/4-8[8:1],1,
{8}1^4[8:1],8,7,6^1[8:1],5,4,3,,8^5[8:1],1,2,3^8[8:1],4,5,6,,
1/5h[4:1],2,3,45,36,27,18,,17,,4,28,,5,27,,
8-5[8:1],1,2,3-8[8:1],4,5,6,,1-4[8:1],8,7,6-1[8:1],5,4,3,,
8-3[8:1],,8,1-6[8:1],,1,{4}5^8[8:1],5,{16}1,2,3,4,{4}5-1[8:1]/6,8,
{8}8^5[8:1],1,2,3^8[8:1],4,5,6,,1^4[8:1],8,7,6^1[8:1],5,4,3,,
4h[4:1]/8,7,6,45,36,27,18,,28,,5,17,,4,1b^4[8:1]/5b^8[8:1],,
{4}1v6[8:1]/5v2[8:1],15,{8}2,1>8[8:3],8,7h[8:3],{2},{8},2-5[8:1],,8,
{4}8-5[8:1],18,{8}2,6,1,1-5[8:1]/5,,7,7-3[8:1],,17,,34,3-8[8:1]/5,
,7,7-4[8:1],,17,,36,4/6-1[8:1],,2,2-5[8:1],,28,,47,2/7-4[8:1],
,2,2-5[8:1],,28,,18,27,,{16}3,4,2,,6,5,{8}7,45,4b^1[8:1]/8b^5[8:1],,
{4}4v7[8:1]/8v3[8:1],48,{8}7,8<1[8:3],1,2h[8:3],{2},{8},7-4[8:1],,1,
{4}1-4[8:1],18,{8}7,3,8,4/8-4[8:1],,2,2-6[8:1],,28,,56,4/6-1[8:1],
,2,2-5[8:1],,28,,36,3-8[8:1]/5,,7,7-4[8:1],,18,,45,2b/7b,
,1b,1b,,{16}7,8,7,,3,4,3,,7,8,6,1,5,2,{8}4,34,25,3b/7bv5[4:1],,
{4}4,4,4,4/5v8[4:1],4,3,2,2/7v5[4:1],3,4,4,4h[2:1]/5,5,5,36,5^8[4:1],
3,2,3,4^1[4:1],6,7,6,5^8[4:1],3,2,{1}3V58[8:3]/6V41[8:3],{8}18,18,2-4[8:1]/7,,
{4}7,1-3[8:1]/7,6,2-4[8:1]/5,5,1-3[8:1]/6,7,2-4[8:1]/7,
6,1-3[8:1]/5,5,2-4[8:1]/6,7-5[8:1],1,{8}37,3-8[8:1]/7-4[8:1],,37,
,1,15,,26,2-5[8:1]/6-1[8:1],,26,,8,48,,15,1/5<4[2:1],,15,{4},,,26,
{16}3,8,3,8,2,7,2,7,{32}2,1,8,7,6,5,4,3,{4}2b^5[8:1]/6b^1[8:1],
2v7[8:1]/6v3[8:1],26,{8}2,1>8[8:3],8,7h[8:3],{2},{8},1/2-5[8:1],,8,
{4}8-3[8:1]*-5[8:1],8,{8}3,6,1,1/8-4[8:1],,2,2^5[8:1]*^7[8:1],,2,,56,4/6-1[8:1],
,2,2-5[8:1]*-7[8:1],,2,,36,3-8[8:1]/5,,7,7-2[8:1]*-4[8:1],,7,,35,3-8[8:1]/7,
,6,6-1[8:1],,68,,18,27,,{16}6,5,8,,3,4,{8}1,27,3b^8[8:1]/7b^4[8:1],,
{4}3bv6[8:1]/7bv2[8:1],37,{8}7,8<1[8:3],1,2h[8:3],{2},{8},7-4[8:1]/8,,1,
{4}1-4[8:1]*-6[8:1],1,{8}6,3,8,1-5[8:1]/8,,7,7^2[8:1]*^4[8:1],,7,,34,3-8[8:1]/5,
,7,7-2[8:1]*-4[8:1],,7,,36,4/6-1[8:1],,2,2-5[8:1]*-7[8:1],,2,,48,2b/6b,
,{16}1,8,1,8,1,,6,5,6,,3,4,3,,7,5,6,4,5,3,{8}4,7b/8b,4b/5b,2b/7b,,
36,{16}4,5,{8}4,36,27,18,27,36,2-4[8:1],5,2-5[8:1],6,2-6[8:1],7,2,8,
{12}2,4,3,7,5,6,1,3,2,8,6,7,1,5,3,7,4,8,2,6,1-5[8:1],7,7,1b,
{1},,,,
E
Re:MASTER
最終更新:2026年10月04日 08:23