BASIC
ADVANCED
EXPERT
MASTER
(186)
{48}1x,28,37,46,5h[3:2],,,,,,,,{4},,
4h[4:3],,,6h[4:3],,,3h[4:3],,,4h[4:3],,,5h[4:3],,,6h[4:3],,,Ch[4:3],,,
7h[2:1],,,6h[2:1]/B6,,,5h[2:1]/B5,,,4h[2:1]/B4,,,3h[2:1]/B3,,,2h[2:1]/B2,,,1h[2:1]/B1,,,
8/Chf[4:3],,7-3[8:1],{64}B7,B3,,,,,,,,,,,,,,,{8},,
45,,3,3,5,,46,,35,,6,6,4,,{24}3,4,3,4,,,{8},,
3,,4,,35,,46,,6,6,5,,35,,46,,3,3,4,,{24}6,5,6,5,,,{8},,45,,
2hx[4:1]/4,,4,,35,,46,6,46,,56,,7h[4:1]/5,,5,,45,,{24}3,4,3,4,,,{8}45,,
56,5,5hx[4:1]/7,,6,6,3,4,5hx[4:1]/2,,4,4,48,48,
{16}3x,7,2,6,1x,5,8,4,1x,5,2,6,{4}3x-8[8:1]/7x-4[8:1],3x/7x,1x/5x,
3/6p4[2:1],3,3,{16}2,,2,3,4,,4,,5,,5,, 2-6[8:1],,2,,8-4[8:1],,8,,1,,1,,2,,2,3,4,,4,,5,,5,,
{4}3/6p4[2:1],3,3,{16}2,,2,3,4,,4,,5,,5,,{8}6h[2:1]/4,,5,,4,3,24,5,46,7,{16}1,8,2,7,
{4}3xq5[2:1],6,6,{16}7,,7,6,5,,5,,4,,4,,7-3[8:1],,7,,1-5[8:1],,1,,8,,8,,7,,7,6,5,,5,,
{8}7-4[8:1]/4,,7x/2q5[2:1],,6,6,6,6,7x,7,6,6,45,
{16}3,4,2h[8:1],,{24}8,7,6,5h[8:1],,,7,6,5,4h[8:1],,,8,,,{12}7x,5,6,2x,4,3,7x,8,6,1x/5x,,,
{8}45,6^8[8:1],8^2[8:1],2^4[8:1],4<8[4:1],,8,1,2,,57,,
45,3^1[8:1],1^7[8:1],7^5[8:1],5>1[4:1],,1,8,7,,
2-6[8:1],6V48[4:1],2,8,7,6,5h[4:1],,1,{16}2,4,3,,
{8}56,4/7-3[8:1],7,7/2-6[8:1],2,{4}2/8^3[8:1]*^5[8:1],8xw4[8:1],8x,2x/6x,3x/7x,
{8}45,6^8[8:1],8^2[8:1],2^4[8:1],4<8[4:1],,8,1,2,3,46,,
45,3^1[8:1],1^7[8:1],7^5[8:1],5>1[4:1],,1,8,7,6,
2-6[8:1],6V48[4:1],2,8,7,6, 1-5[8:1],5V37[4:1],1,7,6,5,
1/5h[4:3],1,1,1,1,1,{32}1x,8,7,6,5,4,3,2,1x,8,7,6,5,4,3,2,{4}1b/8b,
{6}3x/6x,{12}4,5,4,5,{32}4,,,{16}5,4,5,4,5,{64}4,,,5,,,
{18}4,5,4,5,4,5,4,5,4,{16}5,4,5,4,{12}5,4,5,
{8}4,5,{16}4h[16:3],,,5,,,{8}45,{4}27,
{8}1x<5[16:3]/8x,,13,3,4,5,8>4[16:3]/6,,86,6,5,4,
1<5[16:3]/3,,12,{16}2,3,{8}4,4,
4-8[8:1]/5h[4:1],,4,5,26,3,8>4[16:3]/4,,78,6,5,4,4h[4:1]/5-1[8:1],,5,4,37,6,
2-4[8:1],4V28[4:1],2V84[4:1],8,7,6,5x-8[8:1],,2x-5[8:1]/5,,1x/2,,
5x>1[16:3]/7x,,56,7,8,1,2/4<8[16:3],,34,2,1,8,5x>1[16:3]/7,,56,7,8,1,2h[2:1]/5,,4,4,4,4,
{16}3x/5,,6,5,7,,38,,2,1,3,8,4hx[8:1],,7,5,6,,45,,4,5,4,5,
{4}2-4[8:1]/7x,2x-6[8:1]/8-3[8:1],2/8x^5[8:1],8-4[8:1]/4x-2[8:1],8-6[8:1]/4x,8x/1w5[8:1],
{1}1x`Cf,,{4},,,45,3h[4:1]/6x,2,45,6h[4:1]/3x,7,45,{12}7x,5,6,1x,3,2,
{32}8x,7,6,5,4,3,2,1,8x/2x,7x/3x,6x/4x,5x,,,,,1x/7x,26,35,4,,,,,{8}2x/8x,,
{8}3-7[8:1]/7-4[8:1],48,3^6[8:1]/7^2[8:1],,3x/7x-3[8:1],,7/4-8[8:1],,45,6,17,,
2x-5[8:1]/6x-2[8:1],15,2^7[8:1]/6^3[8:1],,2x-6[8:1]/6x,,2/5-8[8:1],,35,2,1,8,
5/7-3[8:1],7,6-2[8:1],6,5-1[8:1],5,4-8[8:1],4,3-7[16:1],3,1,1,
{16}1,6,1,6,2,7,2,7,3,8,3,8,{32}4,5,6,7,8,1,2,3,4,5,6,7,8,1,2,3,4,5,6,7,8,1,2,3,{1}4x/Cf,,,
{4}3h[2:1],,4h[4:1],6h[2:1],,5h[4:1],4h[4:1],3h[4:1],4q5[2:1],5,,8b,
{8}7^4[8:1],4-7[8:1],7-2[8:1],2^7[8:1],3-7[8:1],3,3>5[4:1],,3x,,4x,3,
2^5[8:1],5-2[8:1],2-7[8:1],7^2[8:1],6-2[8:1],6,6<4[4:1],,6x,,5x,6,
{12}4x/7hx[4:1],,5,5h[4:1],,4,4h[4:1],,2,2h[4:1],,1,1h[4:1],,8,8,,78,
{8}7/8>5[2:1],,6,6,6,6,{4}7-3[8:1],7/2-6[8:1],27,
{16}5,4,5,4,5,4,5,4,5,4,5,4,{4}4x-2[8:1]/5x-7[8:1],4x-8[8:1]/5x-1[8:1],4x/5x,
{16}8x-6[8:1]/1x,,1,2,3/8-4[8:1],,3,,38,2,1,,1-3[8:1]/6,,6,7,8/1-5[8:1],,8,,18,7,6,,
8^6[8:1]/3,,3,2,1/8-4[8:1],,1,,18,2,3,,26,,2,4,3,6,5,7,1,8,1,8,
1^3[8:1],,8,7,6/1-5[8:1],,6,,16,7,8,,18,,2,4,3,5,4,6,8,7,8,7,
{12}1hx[1280:1]/6,2,3,4x/8hx[1280:1],7,6,5/4hx[1280:1],3,2,
{4}1^4[8:1]/5^8[8:1],1-5[8:1]/5-1[8:1],15,
{16}3-5[8:1]/8x,,8,7,6/3-1[8:1],,6,,63,7,8,,7-5[8:1]/3,,3,2,1/7-1[8:1],,1,,71,2,3,,
2-8[8:1]/5,,5,6,7/2-4[8:1],,7,,27,6,5,,4x/5x,,7,4,5x,2,6,3,8x,1,8,1,
7x,5,6,2,4,3,7,5,6,2,4,3,8x,6,7,1,3,2,8,6,7,1,3,2,
{32}8x,7,6,5,2x,3,4,5,7x,6,5,4,1x,2,3,4,
7x,6,5,4,3,2,1,8,7x,6,5,4,3,2,1,8,7x/E8,6/E7,5/E6,4/E5,3/E4,2/E3,1/E2,8/E1,
{4}7x-3[16:1]*w3[16:1]/E8,{1}7b/Cf,,,,,,,,E
Re:MASTER
- 加速減速トリル地帯は厳密には間違っている可能性が高いです。正確にわかる方がいらっしゃいましたら修正願います。 -- けもがみ (2021-09-20 11:16:24)
- ノーツ数を割り振って考えるんなら {12}3x/6x,,4,5,4,5,4,5,4,{20}5,4,5,4,5,4,5,4,5,4,{16}5,4,5,4,5,4,5,4,{12}5,4,5,{8}4,5,{16}4h[16:3],,,5,,,45,,{4}27, 5連符の書き方合ってんのか分からんけど -- 名無しさん (2021-10-01 04:24:17)
- 加減速トリル地帯の計算を繰り返して検証をしましたが、小数点以下の分を使っている可能性が非常に高いです。暫定として最も誤差の少ないものを記載しました。(48,762分早い) 以前のバージョンのものは {12}3x/6x,,4,5,4,5,{13}4,{16}5,4,5,4,5,{18}4,5,4,5,4,5,4,5,4,5,4, {16}5,4,5,4,{12}5,4,5,{8}4,5,{16}4h[16:3],,,5,,,45,,{4}27, です。 -- Ruxeye (2021-11-09 20:00:12)
- youtu.be/8o_-15QaArs <-加速減速トリル地帯 検証! -- Fish Head (2021-11-18 00:29:03)
- 加減速トリルの修正、スライドの速さ、後半のハネリズムのミスを修正しました。 -- けもがみ (2026-01-21 10:50:36)
最終更新:2026年06月11日 20:33