アットウィキロゴ

宿星審判

アーティスト suzu

BPM BASIC ADVANCED EXPERT MASTER Re:MASTER
189 4 8 12 14 -

EXPERT MASTER Re:MASTER
譜面制作者 サファ太 ぴちネコ -

BASIC


ADVANCED


EXPERT

{1} ,
{8} 45,,45,,3,3,,34,,34,,3h[8:3]/4h[4:1],
{2} ,
{8} 45,,45,,6,6,,56,,56,,5h[4:1]/6h[8:3],
{2} ,
{8} 4,,4,,3,3h[4:3],,4,,4,,4,,25,25,,1,,8,,7,7,,56,,45,,34,,25,2b/5b,,

3,3,4,,34,,2,2,1,,12,,3,4,35,,6,6,5,,56,,7,7,8,,78,,2x/8x,,1x/7x,,7,7,5,,46,,7,7,8,,17,,26,26,26,,
4x[4:1]/5xh[4:1],,,5x[4:1]/7xh[4:1],,,2x[4:1]/4xh[4:1],,,4x[4:1]/5xh[4:1],,,5,5,4,,
3h[4:1]/6h[4:1],,,B3/B4/B5/B6/Cf,
{2} ,1-5[4:3],,6-1[4:3],,
{4} 2,2,3,3,
{1} 3/4q1[4:3],5p8[4:3],7p2[4:3],1w5[2:1],
{8} 2xh[4:1]/7xh[4:1],,,B2/B3/B6/B7/Cf,,,1x/8x,,2,2,1,3,
{16} 3h[16:3],,,4,,,25,,
{8} 6,6,5,7,
{16} 7h[16:3],,,8,,,16,,
{8} 2xh[4:1]/5xh[4:1],,,3xh[4:1]/6xh[4:1],,,4b/7b,,2,2,4,3,
{16} 3h[16:3],,,4,,,45,,
{8} 6,6,5,7,
{16} 7h[16:3],,,8,,,18,,
{8} 2,2,4,3,5,5,4,6,5x/7x,,45,45,,12,3b/8b,,
{1} Ch[2:3],,
{8} 1,
{4} 1h[1:1],8,8,2,3,24,35,
{8} 4,5,5h[2:1],,4,,4,45,,36,,7,5x/7x,,2,2x/4x,,E2,E3,E4/B5,,E8,E7,E6/B4,,
{4} Ch[8:3],,,1b/8b,

1-4[4:1],,5-8[4:1],,E1,C,E5,B6/E6,7-2[4:1],,3-6[4:1],,7^2[4:1],,3,4,
5-8[4:1],,1-4[4:1],,E5,C,E1,B2/E2,8-3[4:1],,2-5[4:1],,6-1[4:1],,2x,2x,
3-6[4:1],,7h[4:1],5,6-3[4:1],,2h[4:1],4,3^6[4:1],,7h[4:1],5,46,35,
{16} 6xh[16:3],,,5xh[16:3],,,
{8} 4x,4x,,36,3,5,5,4,4,
{16} 5,4,5,4,5,4,5,4,6,3,6,3,
{8} 6x,,5x/7x,5x/7x,,1x/8x,,2x/4x,,5x/6x,,7x/8x,,1x/6x,1x/6x,,
{2} 2x-5[8:1]/7x-4[8:1],
{8} ,B1/B8/Cf,
{2} ,,1b,

{1} 6h[2:3],5h[2:3],4h[4:5],
{8} 3h[4:1],,,3x/4x,,5x/6x,,4x/7x,4x/7x,,,2xh[8:9]/5x,,,,,
{4} 4,4,4,3V58[4:3]/5V38[4:3],
{1} ,
{8} 1h[4:1],,,1x/8x,,2x/4x,,4x/5x,4h[4:1]/5h[4:1],,,5h[4:1]/6h[4:1],,,56,,
4h[4:1]/5h[4:1],,,3h[4:1]/4h[4:1],,,34,,4h[4:1]/5h[4:1],,,5h[4:1]/6h[4:1],,,56,,
7,7,,4x/6x,,3x/5x,,4x/5x,45,56,,7,7,5,,2,2,4,,7,7,8,,1,1,8,8,
{16} 1,8,1,8,1,8,1,8,
{4} 1w5[4:1],,,3b/7b,

{8} 56,6,1,2,
{16} 34,,,56,,,78,,
{8} 16,1,8,7,
{16} 56,,,34,,,12,,
{8} 38,8,1,2,
{16} 34,,,56,,,47,,
{4} 4/7-4[8:1],8,2-5[8:1]/5,1,
{8} 78,7,4,3,
{16} 12,,,78,,,56,,
{8} 47,7,8,1,
{16} 24,,,45,,,57,,
{4} 5/7-4[8:1],3-8[8:1],5-8[8:1],2,
{8} 2,3,7,6,4,3,2x/8x,,1xh[4:1]/7xh[4:1],,,B3/B5/Cf,
{4} ,1x/8x,
{8} 78,7,1,2,
{16} 34,,,57,,,18,,
{8} 27,2,8,7,
{16} 56,,,34,,,28,,
{4} 2-5[8:1]/8,6-1[8:1],
{8} 4,3,2x/8x,,34,34,25,25,16,16,78,,56,56,47,47,38,38,12,,8,8,1,1,
{16} 8,1,8,1,8,1,8p5[2:1],,
{4} ,,,1b,

{8} 6,5,4/7h[4:1],,8,,2,1,3h[4:1]/8,,4,,56,47,38,,2,2,4,4,5,5,7,7,78,78,,1x-5[8:1]/2x,,4x-8[8:1],,7x,
7h[4:1],,8,16,,7,7,8,6-4[8:1],,2-6[8:1],,8-4[8:1],,1>6[2:1],,
{2} 5b,
{8} 8,8,,26,,3,4,2x-5[8:1]/5x,,6x^1[8:1],,3x,3h[8:3],,,8b,,,18,,
{4} 7h[4:1],6h[4:1],5h[4:1],4h[4:1],3h[4:1],1,2xh[4:1]/8xh[4:1],
{8} ,3b/7b-4[8:1],,1b-6[8:1],,8b-3[8:1],,2b-5[8:1],,6b,
7,7,5,5,4,4,2,2,12,3,4,5,6,7,28,28,1-5[8:1],1,6^1[8:1],6,2-6[8:1],2,7^2[8:1],7,
{1} 5bp8[8:5]*q2[8:5],,,E

MASTER

(189)
{1}E1/B2/B7/Cf/B4/B5,
{8}4/5-8[8:9],,4,,4,4,,4,,4,,4,,,12,,5/4-1[8:9],,5,,5,5,,5,,5,,5,,,78,,
16,,16,,26,2,6,3,6,4,6,5,5-1[8:1]/6,,4x/5x,,38,,38,,37,7,3,6,3,5,3,4,3/4-8[8:1],,4x/5x,,
1b/7b,6<2[8:3],5,46,,,3,3,1h[8:1],4,8h[8:1],4,7h[8:1],4,6h[8:1],4,
25,3>7[8:3],4,53,,,6,6,8h[8:1],5,1h[8:1],5,2h[8:1],5,3h[8:1],5,
47,6q3[16:5],5,36,,,1,1,7h[8:1],8,2h[8:1],1,{16}8,3,8,3,6-1[8:1],1,6,1,
{8}6x/2x,3-8[8:1],4,3x/7x,6-1[8:1],5,2x/6x,3-8[8:1],4,3x/7x,6-3[8:1],5,2x/6x,,
{16}1,8,1,8,{8}2h[4:1]/7h[4:1],,,{64}B1/B8/E2/E8,B2/B7,Cf,B3/B6,E4/E6,,,,,,,,,,,,

{8},,,2h[8:3],,1,1h[4:1],,2h[8:3],,,3>6[4:3],,4,4h[8:5],,,,,,,4,5,6,5,4,3,
2h[1:1],,3^5[4:1],3,,,,,7h[1:1],,6^4[4:1],6,,,,,
1h[1:1],,2^5[4:1],2,,,,,8h[1:1],,7^4[4:1],7,,,,,
1,1w5[32:3],,{64},B1,Cf,B4/B5/B6,,,,,,,,,,,,,{8},2x/8x,,

{16}6,5,6,5,7,4,7,4,8h[16:3],,,2h[16:3],,,1,,
3,4,3,4,2,5,2,5,1h[16:3],,,7h[16:3],,,8,,
{24}5x/6hx[8:3],,,,,,8,1,2,3hx[8:3],,,,,,1,8,7,6x,,,,,,
{16}2,1,2,1,3,8,3,8,4h[16:3],,,6h[16:3],,,8,,
7,8,7,8,6,1,6,1,5h[16:3],,,3h[16:3],,,1,,
{8}2,31,28,17,86,56,34,12,
{24}7hx[8:3]/8x,,,,,,5,4,3,2hx[8:3],,,,,,4,5,6,7x,,,,,,

{8}1b/5b,37,6,27,6,17,6,{4}7-2[8:1]/8,7x-3[8:1]/8,7x-4[8:1]/1,7x-5[8:1]/2,7x/3,
{8}27,3,27,3,28,3,{4}2-7[8:1]/1,2x-6[8:1]/1,2x-5[8:1]/8,2x-4[8:1]/7,2x/6,
{8}27,6,27,6,27,{16}8-4[8:1],1,8,1,{8}8b,2-7[8:1],2,2b/6b,5-1[8:1],5,4b/5b,,
28,37,46,5,{16}E3,E7,E2,E8,E4,E6,C,,{8}8hx[4:1],1,1,1hx[4:1],8,8,1xs5[8:1]/8xz4[8:1],,1b/8b,,

36,,5,6,7^4[4:1],8,17,,2,,34,,45,,6>2[8:3],,2,2^7[8:3],,7,7pp7[16:7],,3,,4,,
B4/E5,B6/E7,B2/E3,E1/B8,1x,,
45,,5,6,7^2[4:1],8,73,,4,,13,,68,,34,3/4q5[8:5],,4b/5b,,,6,,7,,8,,
{24}E3,E4,E5,E1,E8,E7,{32}2x,3x,4x,5x,1x,8x,7x,6x,{8}5x/1x,,
36,,4,3,2^5[4:1],1,28,,7,,56,,45,,3<7[8:3],,7,7^2[8:3],,2,2qq2[16:7],,6,,5,,
{16}B6/B7/E7,,,B2/B3/E3,,,E1/B8/Ch[16:6]/B4/E5,,,,,,{8}E3/E7,,
1,1,8,8,{16}3,4,3,4,1,8,1,8,5,6,5,6,1,8,1,8,
4,,{4}4/5-1[32:3],5b/2-5[32:3],2b/7-2[32:3],7b/4-7[32:3],4b/1-4[32:3],8/1b,
{16}36,,1,8,1,8,2h[4:1]/7h[4:1],,,,,,{64}E8/B8/B1/E2,B2/B7,Cf,B3/B6,E4/E6,4x/5x<4[64:67],,,
{8},,,,,E6,E7,E8,E2,E3,E4,,

{4}5h[4:7],4qq2[8:3],,,,2,3,{8}4,{4}4h[8:11]/5p6[8:3],,,{8},5,{4}5h[8:3],,
2b/4b,5b/7b,{8}4b/5b,4h[4:1]/5h[4:1],,,B2/B3/B6/B7/Cf,,,,,
4,,5,,4,,4q3[8:3]/5,{4}5h[8:11]/4,,,{8}3,3,{4}4h[8:3],,

5b/7b,2b/4b,{8}4b/5b,3h[8:7],4q5[8:3],4,,,,,6h[1:1],,3,4,4,5,5,4,4,
3h[4:1],,1,1h[4:1],,8,8,8h[4:1],,
6-3[8:1],6,6b/2-7[8:1],,2b/5-1[8:1],,4/5b,
3,2,18,7,6,7,81,2h[4:1],,8h[8:1],4h[8:1],5h[8:1],1h[8:1],6h[8:1],3h[8:1],8h[8:1],1,
{32}8x,7,6,5,4,,,,2x,3,4,5,6,,,,7x,6,5,4,3,,,,1x,2,3,4,
{8}5h[2:1],6,7,8,1v4[32:3]*v6[32:3],,1b,,

{16}2x,5,4,5,3,6,5,6,4h[8:1],,5,3h[8:1],,4,2,,7,4,5,4,6,3,4,3,5h[8:1],,4,6h[8:1],,5,7,,
2,5,4,5,3,6,5,6,4h[8:1],,5,3h[8:1],,4,2,,7,5,6,4,5,3,4,2,5,1,7,3,6,1,8,3,
7x,4,5,4,6,3,4,3,5h[8:1],,2,4h[8:1],,1,3,,2,5,4,5,3,6,5,6,4h[8:1],,7,5h[8:1],,8,6,,
3,1,2,8,1,7,8,6,5,7,4,6,3,5,2,4,
{8}1h[8:1],8h[8:1],7h[8:1],6h[8:1],5h[8:1],4h[8:1],3h[8:1],2h[8:1],
1,1w5[32:3],,{64},B1,Cf,B4/B5/B6,,,,,,,,,,,,,{16},,3x/7x,,,,

2,5,4,5,1,6,5,6,8h[8:1],,7,1h[8:1],,8,2,,7,4,5,4,8,3,4,3,1h[8:1],,2,8h[8:1],,1,7,,
2,4,3,5,4,6,5,7,4,8,2,6,3,8,1,6,
{8}1-5[8:1],1,2-6[8:1],2,3-7[8:1],3,4-8[8:1],4,5-1[8:1],5,6-2[8:1],6,7-3[8:1],7,8-4[8:1],8,
1x,1,{16}1,8,1,8,1,8,{32}1x-5[32:3],2x,3x,4x,5x,6x,7x,8x,{8}1b,,
6,7,8h[48:29],4,3,2,1h[48:5],{48}E1,B1/B8,C,B4/B5,E5,,,,,,,,{8}2b/7b,,

3,2,7,6h[4:1],,8h[8:1],1h[8:1],3h[8:1],4h[8:1],5h[8:1],7h[8:1],2h[8:1],
{16}7,6,5,4,1,2,3,4,1,3,8,2,7,1,6,8,7,5,6,4,5,3,{8}4b-7[8:1],,4x/2b-5[8:1],,2x/8b,
7,6,3,2h[4:1],,1h[8:1],8h[8:1],7h[8:1],6h[8:1],5h[8:1],4h[8:1],3h[8:1],
2h[8:1],1h[8:1],8h[8:1],7h[8:1],{16}2,3,4,5,8,7,6,5,8,6,1,7,2,8,3,1,2,4,3,5,4,6,5,7,
8,6,1,7,2,8,3,1,4,,4w8[32:3],,,,{64},B4,Cf,B1/B8/B7,,,,,,,,,,,,,
{8},,6h[4:1],,7,8,1,2,8,2p4[4:1],8q6[4:1],,,,,
4x/5x,{4}4x-8[32:3]/5x,4b/7x-4[32:3],7b/2x-7[32:3],2b/5x-2[32:3],8x-5[32:3]/5b,
{8}1x/8b,3,34,6,56,2,23,7,76,1,28,31,42,57,68,17,18,
{16}7,8,{64}7x,E7,B6,B5,E5,,,,{16}2,1,{64}2x,E3,B3,B4,E5,,,,
{16}7,8,{64}7x,E7,B6,B5,E5,,,,{16}2,1,{64}2x,E3,B3,B4,E5,,,,
{16}8b,,,,1,2,3,4,7,6,5w1[8:1],4,3,4,{1}5x,,,,E

Re:MASTER


  • 追加しました。修正等ありましたらよろしくお願いします。 -- けもがみ (2021-09-21 19:14:38)
  • MASTER譜面のノーツの配置ミス、SLIDEの速度の修正を行いました。 -- けもがみ (2026-03-26 22:14:25)
名前:
コメント:

タグ:

+ タグ編集
  • タグ:
最終更新:2026年04月09日 22:32