EASY
BASIC
(156.0){1},
(161.0){4},,(167.0),(161.0),
(160.0){4},(166.0),,(162.0),
{4},(171.0),(156.0),(135.0),
(145.0){1},
(155.0){4},(165.0),,(150.0),
(130.0){4},(155.0),(129.0),(141.0),{1},
{4},(186.0),1,,
{2},8,
{2},1,
{2},8,
{4}8,,1,1,
{4}1,,2,2,
{2}2,3/4,
{2}3/4,3b/4b,
{2},5,
{2}5,5,
{2},6,
{2}6,6,
{2},7-2[4:3],{1},
{2},3-6[4:3],{1},
{2},7,
{2}7,7/8,
{2},8,
{2}8,1/8,
{2},2-7[4:3],{1},
{2},6-3[4:3],{1},
{2},2h[4:3],{1},
{2},3h[4:3],{1},
{2},4,
{2},5,
{2},4,
{2}4,4/5,
{4},,3,3,
{4}3,,2,2,
{4}2,,1,1,
{4}1,,8,8,
{4}8,,7,7,
{4}7,,6,6,
{4}6,,5,5,
{4}4,4,5,5,
{4}5,,6,6,
{4}6,,7,7,
{4}7,,8,8,
{4}8,,1,1,
{4}1,,2,2,
{4}2,,3,3,
{4}3,,4,4,
{4}5,5,4,4,
{2}4b,3/4,
{4}3/4,,2,2,
{4}2,,1,1,
{4}1,,1/8,1/8,
{2}1/8,7/8,
{4}7/8,,8,8,
{4}8,,1,1,
{4}8,8,1,1,
{4}1,,8,8,
(178.478){4}1,(168.416)1,(162.607)8-4[185.84#4:3],(140.856),
(126.931){4},(108.727),(119.51),,
(186.0){4},,4,4,
{4}5,5,4/5,4/5,
{2}4b/5b,3,
{2}3,2,
{2}2,1,
{4}1,,8,8,
{2}8,7,
{2}7,6,
{2}6,5-8[1:1],{1},
{2},{4}4-1[1:1],{1},,
E
ADVANCED
(156.0){1},
(161.0){4}4/5,,(167.0),(161.0),
(160.0){4}4/5,(166.0),3/6,(162.0),
{4}3,(171.0)4,(156.0)5,(135.0)6,
(145.0){4}4/5,,3,4,
(155.0){4}2/5,(165.0),6,(150.0)5,
(130.0){4}4/7,(155.0),(129.0)4/5,(141.0),{1},
{4},(186.0),3,4,
{4}3,,6,5,
{4}6,,4,5,
{4}4,,4/5,3/6,
{4}2/7,,2,1,
{4}2,,7,8,
{2}7,1s5[4:5],{1},
{4},,3,4,
{4}3,3,4,3,
{4}2/4,,6,5,
{4}6,6,5,6,
{2}5/7,3h[2:1],
{2}4,6h[2:1],
{4}5,,7,8,
{4}1,2,1/8,,
{4}1,8,2,1,
{4}2,2,1,2,
{4}1/3,,7,8,
{4}7,7,8,7,
{2}6/8,2h[2:1],
{2}1,7h[2:1],
{4}8,,6,5,
{4}4,3,4/5,,
{4}4/5,3/6,{2}7/2^5[4:3],{1},
{4}4/5,3/6,{2}2/7^4[4:3],{1},
{4}3,2,1,8,
{4}7,6,4/5,,
{4}3/6,2/7,2h[4:1],1,
{4}7h[4:1],8,1b/8b,,
{4}1,8,2,4,
{4}3,5,4,6,
{4}7/8,,7,5,
{4}6,4,5,3,
{4}1/2,,2,3,
{4}4,5,6,7,
{4}1/8,,1/2,1/2,
{4}7/8,7/8,1/8,2/7,
{4}3b/6b,,4,5,
{4}6,7/8,6,5,
{4}3/4,,5,4,
{4}3,1/2,3,4,
{4}5/6,,7,6,
{4}5,4,3,2,
{4}1/8,,7/8,7/8,
{4}1/2,1/2,1/8,2/7,
{4}3b/6b,,4,6,
{4}8,1/2,3,8,
{4}6,4,5,3,
{4}1,7/8,6,1,
{4}3,5,7,7/8,
{4}2,1/2,1/8,2/7,
{4}3/6,4/5,3/4,3/4,
{4}5/6,5/6,4/5,3/6,
{4}2b/7b,1/8,2h[4:1],1,
(178.478){4}7h[4:1],(168.416)8,(162.607)1/8,(140.856)1/8,
(126.931){4}1/8,(108.727),(119.51),,
(186.0){4}4/5,4/5,3,2,
{4}1,8,7,6,
{4}4b/5b,,3,4,
{4}2,5,1,6,
{4}8,7,1/8,2/7,
{8}3/6,,4/5,,3/6,,4,5,
{4}4,,6,5,
{4}7,4,8,3,
{4}1,2,{2}1>8[4:5],{1},
{2},8<1[4:5],{1},,
E
EXPERT
(156.0){1},
(161.0){4}2/5,,(167.0),(161.0),
(160.0){4}4/7,(166.0),1/8,(162.0),
{4}2,(171.0)7,(156.0)3,(135.0)6,
(145.0){4}4/5,,2,1,
(155.0){4}3/8,(165.0),7,(150.0)8,
(130.0){4}6/1>8[173.33#12:29],(155.0),(129.0),(141.0),{1},
{8},,(186.0),,1/8,1/8,,,
{8},,,,1/2,1/2,,,
{8},,,,7/8,7/8,,,
{4},,4/5,3/4,
{4}5/6,,4,3,
{4}2/5,,5,6,
{8}4/7,,,,4/5,,,3/6,
{8},,2/7,,,1b/8b,,,
{8}1,,8,,2/7,,,1,
{8}1,,,2,2h[4:1],,3h[4:1],,
{8}4,,4/5,,3/6,,,8,
{8}8,,,7,7h[4:1],,6h[4:1],,
{8}5,,,,2h[2:1],,,5,
{8}5,,,,7h[2:1],,,4,
{4}4,,2h[4:1],1h[4:1],
{4}8h[4:1],7h[4:1],6,,
{8}4/5,,2/7,,1/8,,,7,
{8}7h[8:3],,,4,4h[4:1],,3h[4:1],,
{8}2,,1/8,,3/6,,,2,
{8}2h[8:3],,,5,5h[4:1],,6h[4:1],,
{8}7,,,,3h[8:3],,,2,
{8}2,,,,6h[8:3],,,7,
{8}7,,,,2/7,,1,8,
{8},,8b,1b,,,,,
{8}1/2,,7/8,,1-5[8:1],,,8-4[8:1],
{4},2^5[4:1],,,
{8}7/8,,1/2,,8-4[8:1],,,1-5[8:1],
{4},7^4[4:1],,,
{4}1/2,7/8,4h[4:1],2,
{4}5h[4:1],7,3/6,,
{4}3/4,5/6,1h[4:1],3,
{4}8h[4:1],6,2b/7b,,
{8}4,,5,,3/6,,3,4,
{8}3,,6,5,6,,7/8,,
{8}1/2,,,,2/7,,2,1,
{8}2,,7,8,7,,4b/5b,,
{8}2b/7b,,4,5,3,,5,4,
{8}6,,2/7,,1,8,1,8,
{4}1,2/7,8-5[8:1],1-4[8:1],
{4}8-5[8:1],1-4[8:1],8,1,
{8}2b/7b,,,,4/5,,2,4,
{8}3,,7,5,6,,1/3,,
{8}6/8,,,,3/6,,7,1,
{8}8,,2,8,1,,4b/5b,,
{8}1b/8b,,2,6,4,,7,3,
{8}5,,3,6,2,7,1,8,
{4}1,2/7,8-3[8:1],1-6[8:1],
{4}8-3[8:1],1-6[8:1],8,1,
{8}2b/7b,,,,1/8,,1,2,
{8}3,,8,7,6,,2/3,,
{8}6/7,,,,2/7,,4,3,
{8}2,,5,6,7,,4b/5b,,
{8}1b/8b,,2,2,1/3,,7,7,
{8}6/8,,3,2,1,8,7,6,
{4}4/5,3/6,5-1[8:1],4-8[8:1],
{4}5-1[8:1],4-8[8:1],5b,4b,
{8}2b/7b,,2,1,3/8,,7,8,
(178.478){8}1/6,,(168.416)8,1,(162.607)7,2,(140.856)6,3,
(126.931){4}4q1[184.62#8595:6446]/5p8[184.62#8595:6446],(108.727),(119.51),,
(186.0){4}1/2,7/8,1^4[8:1],8^5[8:1],
{8}1-5[8:1],,8b,,8,1,8,1,
{4}2b/7b,,1,5,
{4}3/7,2/6,8,4,
{4}2/6,3/7,1/2,5/6,
{4}7/8,3/4,1s5[2:1],,
{4},,6,4/8,
{4}4,2/6,3,1/5,
{8}5,,3/7,,2-7[8:1],,,6-3[8:1],
{4},1q4[2:1],,,
{8},,,,7-2[6259:652],,,3-6[6259:652],
{4},8p5[2:1],,,,
E
MASTER
(165)
{1} 4,5,
(160)
{2} 6,
(155) 5,
(130) 4,
(160)
{4} 3,4,5,,
(150) 6,5,
(145) 4,
{16} ,,3,4,5p4[8:9],,,,,
(168)
{4} 4,,,,,,,
(186)
{16} 4,5,4,5,
{8} 4,36,,,
{16} 2,1,2,1,
{8} 2,38,4,45,,,
{16} 7,8,7,8,
{8} 7,16,5,45,,,
{16} 1,8,1,8,
{8} 1,27,3,6,
{16} 4,5,4,5,
{4} 4-8[8:1],1,
{8} 34,45,56,,
{16} 7,8,7,8,
{8} 7,18,56,45,34,,
{16} 2,1,2,1,
{8} 2,18,
{16} 4,5,4,5,2,,5,4,5,4,7,,3,4,3,4,1,,6,5,6,5,8b,,
{4} ,,27,
{8} 1,28,37,,4,35,
{4} 2^5[8:1]/6^1[8:1],6q3[8:1],,
{8} 5,4,27,,8,17,26,,5,46,
{4} 3^8[8:1]/7^4[8:1],3p6[8:1],,,2h[8:3],
{8} ,1,
{4} 38,45,7h[8:3],
{8} ,8,
{4} 16,2^5[8:1],7^4[8:1],
{8} 2,2^7[8:1],,,6,6<3[16:3],
{2} ,4-8[8:1]/5-1[8:1],
{8} 27,,1,28,37,,4,35,
{4} 2^5[8:1]/6^1[8:1],2q7[8:1],,
{8} 1,8,27,,8,17,26,,5,46,
{4} 3^8[8:1]/7^4[8:1],7p2[8:1],,,7h[8:3],
{8} ,8,
{4} 16,45,2h[8:3],
{8} ,1,38,,
{2} 2v4[8:1]/6v8[8:1],
{8} 7,7^2[8:1],,,3,3>6[16:3],
{2} ,
{16} 56,,34,,2,7,1,8,
{8} 2-6[8:1]/7,,8,7-3[8:1],,1,2,,
{2} ,1-5[8:1]/8-4[8:1],
{8} 3/6-2[8:1],,4,3-7[8:1],,5,6,
{2} ,
{16} 1,8,
{12} 2,4,3,7,5,6,
{4} 1q6[4:1],6q3[4:1],3q8[4:1],8^3[8:1],6,,4-8[8:1]/5-1[8:1],,
{8} 2-4[8:1],7-5[8:1],2-5[8:1],7-4[8:1],2-6[8:1],7-3[8:1],2,7,
{2} 1b,
{4} 1^4[8:1]/8^5[8:1],18,
{16} 27,,3,4,3,,8,,27,,6,5,6,,1,,27,,4,5,4,,8,,
{4} 17,
{8} 1-5[8:1],28,,,7,5,4,2,6^1[8:1],5,4,,3^8[8:1],4,5,,8,1,27,
{16} 6,5,6,,1,,27,,3,4,3,,8,,
{8} 27,3,24,6,57,,12,78,18,
{16} 2,4,3,,7,5,6,,1,8,1,,
{8} 27,34,8,56,1,2b/7b,,56,34,4-1[8:1]/5-8[8:1],,45,,27,
{16} 3,4,3,,8,,17,,6,5,6,,1,,
{4} 28,
{8} 8-4[8:1],17,,,2,4,5,7,1,8,
{4} 3-8[8:1]/7,3/6-1[8:1],2b/6,
{8} 3,4,25,
{16} 6,5,6,,1,,27,,3,4,3,,8,,
{8} 27,3,17,6,28,,78,12,18,
{16} 7,5,6,,2,4,3,,8,1,8,,
{8} 27,56,1,34,8,
{4} 2-5[8:1]/7-4[8:1],2b/7b,3-8[8:1]/6-1[8:1],3b/6b,
{16} 18,,2,1,2,,5,,46,,7,8,7,,3,,
{4} 24,
{8} 1^4[8:1]/8^5[8:1],27,,,3,6,8,1,3,6,
{4} 4v3[8:1]/5v6[8:1],4-8[8:1]/5-1[8:1],,
{8} 1,8,27,
{16} 3,4,3,,8,,17,,6,5,6,,1,,
{8} 28,37,46,15,37,,24,57,18,
{16} 2,1,2,,7,8,7,,4,5,4,,36,,
{8} 18,27,36,45,2b/7b,,18,27,36,
{16} 5,4,5,,36,,27,,1,8,1,,27,,
{6} 15,26,37,
{16} 48,,
{32} ,
(185){16} 15,,,(180)26,,,(175)37,,,
(186)
{1} 4h[8:7]/8h[8:7],
{4} 4^1[8:1]/8^5[8:1],48,
{16} 8,7,8,7,4,5,4,5,2,1,2,1,4,5,4,5,
{8} 3,24,6,57,
{4} 1-5[8:1]/8-4[8:1],1b/8b,
{8} 34,45,56,,
{16} 7,8,7,8,
{8} 7,18,56,45,34,,
{16} 2,1,2,1,
{8} 2,18,34,45,56,,
{16} 7,8,7,8,
{8} 7,18,56,34,
{16} 5,4,5,4,
{4} 5-1[8:1],8,
{8} 23,45,67,,
{16} 7,8,7,8,
{8} 7,18,67,45,23,,
{16} 2,1,2,1,
{8} 2,18,
{16} 4,5,4,5,2,,5,4,5,4,7,,3,4,3,4,1,,6,5,6,5,8,,27,,36,,4,5,4,5,
3,4,2,4,1,,6,5,7,5,8,,2-6[8:1],1,2,1,2,,7-3[8:1],8,7,8,
{2} 7,
{1} ,,E
Re:MASTER
最終更新:2026年10月03日 22:18