アットウィキロゴ

NAGAREBOSHI☆ROCKET

アーティスト 梅干茶漬け

BPM BASIC ADVANCED EXPERT MASTER Re:MASTER
216 6 8 12 14 -

EXPERT MASTER Re:MASTER
譜面制作者 サファ太 SHICHIMI☆CAT -

BASIC


ADVANCED


EXPERT


MASTER

(216)
{4},,,{16}E4,B6,B2,E8,
{8}1h[2:1],,,8,8h[2:1],,,7,7h[2:1],,,6,6,,,
3,3h[2:1],,,2,2h[2:1],,,1,1h[2:1],,,8,8,,,
2,2h[2:1],,,3,3h[2:1],,,4,4h[2:1],,,E7,E6,,,
7,7h[2:1],,,6,6h[2:1],,,5,5h[2:1],,,E3,E4,,
{16}8z4[2:1]*>4[2:1],1,8,1,{4}8b,,,
{8}26,2h[8:3]/6h[8:3],,,,7h[4:1]/8h[4:1],,,1s5[4:2]*<5[4:2],,{4}1b,,,
{8}37,3h[8:3]/7h[8:3],,,,45,{4}4-1[8:1]/5-8[8:1],,2b/7b,
7-5[8:1],1-3[8:1],8-4[8:1],1-5[8:1],8-6[8:1],2-4[8:1],1,
{16}2,,2,,7,,7,,1,8,1,8,1,8,1,8,{8},2x/6x,3x/7x,4x/8x,5b/1b,,,

{16}B6,B5,{4}E5,B3/B4,B6/E7,B2/E3,{8}E8,B8,B1,E2,,E7,C,E3,
{4}B4/E5,B5/B6,E3/B3,E7/B7,{8}E2,B1,B8,E8,,E3,C,E7,,
2h[4:1],,3,,7h[4:1],,6,,4,5,4h[8:3],,5,5,,
6h[8:3],,3,3h[4:1],,5h[4:1],,{1}4pp4[2:1]*qq4[2:1],
{16}B3,B4,{4}E5,2x/B5/B6,E3/B3,2x/E7/B7,{8}E2,B1,B8,E8,,E3,C,E7,
{4}E5/B5,7x/B3/B4,B6/E7,7x/B2/E3,{8}E8,B8,B1,E2,,E7,C,E3,,
7h[4:1],,6,,2h[4:1],,3,,5,4,5h[8:3],,4,4h[4:1],,6h[1:1],,,
{16}B8,C,B4,,,,,,,,1,2,3,4,1,2,3,4,8,7,6,5,8,7,6,5,

{2}4x-8[8:1],4x-1[8:1]*-7[8:1],{16}6x,,5,,7,,5,5,6,,5,,4/8b,,,,
{2}5x-1[8:1],5x-2[8:1]*-8[8:1],{16}3x,,4,,2,,4,4,3,,4,,5/1b,,,,
{2}3x-7[8:1],3x-8[8:1]*-6[8:1],{16}7x,,8,,6,,8,8,7,,8,,1/5b,,,,
{2}6x-2[8:1],6x-3[8:1]*-1[8:1],{8}2x,1,3,1,4b/8b,2b/6b,,{16}4,5,
{8}3-8[8:1],4,3x,4,5-8[8:1],4,5x,,{16}3,5,2,6,1,7,2,8,3,7,4,6,5b,,,,
{8}6-1[8:1],5,6x,5,4-1[8:1],5,4x,,{16}6,4,7,3,8,2,7,1,6,2,5,3,4b,,,,
{8}3-8[8:1],4,3x,4,5-8[8:1],4,5x,,{16}3,5,2,6,1,7,2,8,3,7,4,6,5b,,,,
{8}6,6,57,57,3,3,24,24,{16}1,8,1,8,27,,27,,
{32}E3,B3,B4,E5,E7,B6,B5,E5,{4}Chf[4:1],{1}8b,,,{2},

{24}27,,,8x,7x,6x,5x,,,1x,2x,3x,{8}4x,,7,56,{4}5>8[1:1]/6,E7,B5,E3,B4,C,
{8}6,6h[4:1],7,7h[4:1],2,2h[4:1],3,3,1,1,28,28,37,37,4b/6b,,
1x/5x,,2,34,{4}3/4<1[1:1],E3,B4,E7,B5,C,{8}3,3h[4:1],2,2h[4:1],7,7h[4:1],6,6,
{16}4,5,4,5,4,5,4,5, 2,7,2,7,2-7[8:1],7,2,7,{8}2x,,,,,,,
{8}1b/5b,,1b/8b,2b/7b,3b/6b,,,C,,

7-3[8:1],3-8[8:1],7,1,,4,4-1[8:1],4,8-3[8:1],7-4[8:1],8x,7,,
2-5[8:1],1,8,7-3[8:1],3-8[8:1],7,{4}5qq5[4:1],5x<4[2:1]/7,Cf,,
{16},,7h[8:1],,5,6h[8:1],,4,5h[8:1],,2h[8:1],,8,1h[8:1],,7,8h[8:1],,
{4}6-2[8:1],8-3[8:1]*-5[8:1],8x,{16},,26,37,4-1[8:1]/8-5[8:1],,,,48,,,,
2h[8:1],,6,2h[8:1],,4,2h[8:1],,8,2h[8:1],,4,
{8}1V35[8:1],5V71[8:1],1,,,{24}2x/8x,37,46,{4}5,3b/7b,
{8}2-6[8:1],6-1[8:1],2,4,,5,5-8[8:1],5,1-6[8:1],2-5[8:1],1x,2,,
8,8^5[8:1]/4^1[8:1],,48,,,{16}26,37,{4}4/8qq8[4:1],8x>7[8:3]/2,Cf,,
{16}2h[8:1],,8,1h[8:1],,7,8h[8:1],,6h[8:1],,4,5h[8:1],,3,4h[8:1],,
{4}1-5[8:1],1-3[8:1]/8-3[8:1],1-6[8:1]/8-6[8:1],1-5[8:1]/8-4[8:1],1b/8b,3x/6x,
{16}7h[8:1],,3,7h[8:1],,5,7h[8:1],,1,7h[8:1],,5,8-4[8:1],,3,,{4}8,2-5[8:1]/6-1[8:1],26,

3x>4[1:1]/7x,{1}Cf,{4},,,6<5[1:1]/2,{1}Cf,{4},,7-3[16:1]*-3[16:1],,4-1[8:1],8b,
{8}7-5[8:1],8,7,1,8-4[8:1],2^7[8:1],8,2,,5x/6x,47,38,,
1-5[8:1],8-6[8:1],1-3[8:1],8-4[8:1],1>8[8:3],8,1,{4},,
2-7[8:1]/6-3[8:1],,1-4[8:1]/5-8[8:1],15,3-8[8:1]/7-4[8:1],37,2-5[8:1]/6-1[8:1],26,
{16}37,,4,5,4,,8,,{8}27,,18,,7-4[8:1],,1-4[8:1],,6-1[8:1],,3-7[8:1],3,8,,2x/6x,,
18,27,36,,2-4[8:1],5-7[8:1],2,5,1-4[8:1],8-5[8:1],1,8,2,2,8V64[8:1],4V28[8:1],8,,,
{24}1x/7x,26,35,{4}4,2b/6b,{16}1,5,1,5,2,6,2,6,3,7,3,7,{32}3,4,5,6,7,8,1,2,
{1}3-7[4:6]*-7[4:6]/7b,,{16}15,6,7,8,3,4,5,6,1,2,3,4,7,8,1,2,
{24}5h[8:1],,,1,8,7,5h[8:1],,,1,2,3,8h[8:1],,,6,5,4,8h[8:1],,,2,3,4,{1}8b,,,

{4},,,5h[4:1],{8}3h[8:15],4,5,6,,4,5,6,,5,6,7,,5,6,7h[4:5],,5,4,3,,5,4,3,,4,3,2,1,8,2,7,
{1}B4/B5/C/B2/B7/E1,,,,E

Re:MASTER


  • 追加しました。修正等ありましたらよろしくお願いします。 -- けもがみ (2021-09-24 18:00:23)
  • MASTER譜面のE6,E7,,,→E7,E6,,,の箇所の修正、SLIDEの速度の修正、EXノーツの修正を行いました。 -- けもがみ (2026-05-15 07:06:13)
名前:
コメント:

タグ:

+ タグ編集
  • タグ:
最終更新:2026年05月15日 07:06