アットウィキロゴ

魔法少女になるしかねぇ

アーティスト ねこみりん feat.小宮真央

BPM EASY BASIC ADVANCED EXPERT MASTER Re:MASTER
165 3 5 9 12 14 -

EXPERT MASTER Re:MASTER
譜面制作者 玉子豆腐 小鳥遊さん -

EASY


BASIC


ADVANCED


EXPERT

(165)
{1}1w5[2:1],
{8}7,7,{4}4,47,24,28,3-8[8:1]/5,7,16,
{8}3,3,{4}4,35,57,17,4/6-1[8:1],2,38,
{8}6,6,{4}5,47,14,12,4/5-1[8:1],2,38,
{8}3,3,{4}4,25,58,18,2-5[8:1]*-7[8:1],,,
7h[4:1],1-5[8:1],,,
35,17,{8}8,8,{4}17,28,46,{8}5,5,{4}46,
35,28,{8}7,8,{4}16,46,17,{8}2,1,{4}38,
25,28,{8}7,8,{4}16,17,47,{8}2,1,38,,
7,5,48,,3,1,48,,2,6,{4}48,5-8[8:1],1b,
{8}1,2,8,7,3,4,6,5,2,3,4,5,{4}6-1[8:1],2b,
{8}12,3,1,8,17,6,1,2,37,4,6,5,{4}34,1b/7b,
6h[1:1],5,4,5,3pp6[2:1],,,,7h[4:1],5,2h[4:1],4,5h[4:1],4h[4:1],3,25,
3h[1:1],4,5,4,6<3[2:1],,,,2h[4:1],4,7h[4:1],5,5b/7b,5b,4b,2b/4b,
34,35,45,46,6v4[4:1]*v8[4:1],,,2,2h[4:1],3,7h[4:1],6,1/8-5[8:1],4,{8}3,4,25,,
{4}56,46,45,35,3p6[4:1]*>7[4:1],,,,8,56,34,{8}1,{4}1,28,3-7[8:1]/7,,{8},
{2}5-8[8:1]/6,3/4-1[8:1],{4}78,6,{8}5,5,24,,
{2}7/8-5[8:1],1-4[8:1]/2,{4}56,7,{8}8,1,27,,
7,7,{4}5/6V48[4:1],,1,{8}2,2,{4}3V51[4:1]/4,,8,
7-2[8:1]/8,1,3-6[8:1]/4,5,7h[4:1],5h[4:1],4,2b/7b,
3h[4:1],2-7[8:1],,,
{8}6,6,{4}5,46,24,2V48[4:1]/8,5-7[8:1],,16,
5/7h[4:1],1,3h[4:1]/5,1,1/8V27[4:1],3,,1b,
6-1[8:1],5,4-1[8:1],5,1q6[4:1]/2^5[4:1],,,47,
{2}2-7[8:1]/6-3[8:1],2-6[8:1]/7-3[8:1],8w4[4:1],{4},26,
{8}3,3,{4}4,35,57,1/7V51[4:1],4-2[8:1],,38,
{8}6,6,{4}5,46,24,2V84[4:1]/6V84[4:1],,,,
2h[4:1]/4,8,4/6h[4:1],8,1w5[4:1],,,37,
{2}4b-1[8:1]/8b-5[8:1],1b^4[8:1]/5b^8[8:1],4bV27[8:3]/8bV63[8:3],,
{16}2h[16:3],,,1,,,8,,7h[16:3],,,8,,,1,,{2}2h[4:1]/6h[4:1],3-7[8:1]/4-8[8:1],
{8}24,3,5,4,57,6,4,5,4,3,5,6,2,3,7,6,
25,1,8,7,36,2,15,6,47,8,1,2,36,7,16,2,
18,18,18,18,{16}8,1,8,1,8,1,8,1,{4}8w4[4:1],,,2b/6b,
{8}6,5,{4}47,14,47,7V51[4:1],4-2[8:1],,48,
{8}3,4,{4}25,58,25,2V83[4:1]/6V85[4:1],,,,
5/7h[4:1],1,2h[4:1]/4,8,8w4[4:1],,,26,
{2}1b-4[8:1]/4b-7[8:1],5b^2[8:1]/8b^5[8:1],1bV35[8:3]/5bV71[8:3],,
{4}7h[4:1],1-5[8:1],,,
4h[4:1],3pp6[8:3],,,5h[4:1],6qq3[8:3],,,2h[4:1],3q6[8:3],,,7h[4:1],6p3[8:3],,,
2h[4:1],3qq5[8:3],,,7h[4:1],6pp4[8:3],,,3h[4:1],2qq5[8:3],,,6h[4:1],8pp4[8:3]*qq4[8:3],,,
{1}1h[1:1]/8h[1:2],,,,
E

MASTER

(165)
{1}1pp4[2:1]/5pp8[2:1],
{4}3h[4:3]/8-4[8:1],,4-7[8:1],{8},3,{2}3h[2:1]/7-2[8:1],{8}2-5[8:1],3,3,3,
{4}1-5[8:1]/6h[4:3],,5-2[8:1],{8},6,{2}2-7[8:1]/6h[2:1],{8}7-4[8:1],6,6,6,
{4}3/8-4[8:1],3,3/4-7[8:1],{8}3,3,{4}3/7-2[8:1],3,{8}2-5[8:1]/3,3,3,3,
1-5[8:1]/6,6,6,6,5-2[8:1]/6,6,6,6,26,37,48,{16}1qq7[16:3]/5qq3[16:3],15,{2},4h/8h[16:11],{16}7h,,,1h,,,,,
{8}26,26,4v2[4:1]/8v6[4:1],48,{2},{8}26,26,4V62[4:1]/8V62[4:1],48,{2},
{8}26,26,4s8[4:1]/8s4[4:1],48,{2},{8}26,26,4p6[4:1]/8p2[4:1],48,{2},
{8}48,37,48,37,{2}1-5[8:1]/5-1[8:1],{8}26,37,26,37,{2}3-7[8:1]/6-2[8:1],
{8}45,27,36,18,{2}4-6[16:1]/5-1[8:1],{16}8,4,7,3,6,2,5,1,{4}4w8[8:1],4b,
{16}1,1h[8:1],,7,7h[8:1],,3,3h[8:1],,5,5h[8:1],,{16}4,5,4,5,
4,4,8,8,2,2,6,6,1,8,1,8,2b/7b,,,,
2,5,2,4,2,3,2,,7,4,7,5,7,6,7,,2,4,3,7,5,6,4,5,
4h[8:1],,{24}7b,6,5,4,,,2b,3,4,
{8}5,7,7,2,2,5,5,4h[4:1],,6,{4}4-8[4:1]/6-2[4:1],,,
{8}18,7,7,3,3,5,5,1,{4}1w5[8:1],,37,37,
{8}18,8,57,3,24,1,{4}1>5[4:1]/8,5<1[4:1],1>5[4:1],5,1,
{8}28,6,5,3,24,5,6,2,{2}1^4[8:1]/5^8[8:1],1^6[8:1]/5^2[8:1],
{8}6,5,47,6,3,4,25,3,6,5,47,6,{2}4-1[8:1]/5-8[8:1],
{8}2,1,38,2,7,8,16,7,{4}2^5[8:1],8^5[8:1],1-5[8:1]*z5[8:1],,
4b/7b,2b/5b,{8}6,5,47,6,3,4,25,3,{2}4^1[8:1]/5^8[8:1],
{8}3,4,5,6,78,12,34,{4}56,48,26,{8}1b,1b,,
1-4[8:1]/2-7[8:1],12,,,5-8[8:1]/6-3[8:1],56,,,1-5[4:1]/4V27[4:1],14,{4},,36,
{8}7-2[8:1]/8-5[8:1],78,,,3-6[8:1]/4-1[8:1],34,,,16,7,8,1,25,{16}34,34,{8},45,
34,2,34,5,34,2,34,45,56,7,56,4,56,7,56,45,
34,24,14,48,56,57,58,15,{16}4,8,3,7,2,6,1,5,{4}1w5[8:1],1,
3h[4:3]/7b,{24}4,5,6,7,8,1,{4}2-7[8:1],2b,
{8}2-5[8:1]/6,1,7-4[8:1],8,2-5[8:1],1,7qq4[16:7],8,3,2,1,{16}8,8,{8},2b/6b,4b/8b,,
8-2[8:1],2v3[8:1],{4}3V58[4:1],1-5[8:1],,4^1[8:1]/8^5[8:1],4-8[8:1]/8,{8}24,1b,1b,,
{4}1-4[8:1]/7h[1:1],1-5[8:1],1-6[8:1],1,{8}8,12,34,56,,45,2-6[8:1]/7,,
{4}2^5[8:1]*^7[8:1],2-6[8:1],2>6[8:1]*<6[8:1],2w6[8:1],2b,4b/8b,{16}7b,,7b,7b,,,,,
{8}3/7-4[8:1],8,2-5[8:1],1,7-4[8:1],8,2pp5[16:7],1,6,7,8,{16}1,1,{8},3b/7b,1b/5b,,
2-5[8:1]/6,1,7-4[8:1],8,2-5[8:1],1,7-4[8:1],8,3,2,1,{16}48,1b/5b,{8},,,45,
{4}3^6[8:1]/6,8,3/6^3[8:1],1,{8}4-8[8:1],8w4[8:1],,,,7,6,5,
{16}4b,3,2,1,8,7,6,5,4b,3,2,1,8b,7,6,5,
{32}4b,3,2,1,8b,7,6,5,4b,3,2b,1,8b,7,6b,5,
4b,3b,2b,1b,8b,7b,6b,5b,{4}4b,
{16}1h[16:3]/2-5[8:1],,,2,1,,8,,7-4[8:1]/8h[16:3],,,7,8,,1,,
{8}2h[4:1]/6h[4:1],,,37,{16}1,2,3,4,8,7,6,5,
3V51[4:1],3,,5,,,7,,6V48[4:1],6,,4,,,2,,
1,2,3,4h[16:3],,,5,,1,8,1,8,2b/7b,,,,
3,4,3,5,3,6,3,7,3,7,2,7,1,7,78,,6,5,6,4,6,3,6,2,6,2,7,2,8,2,12,,
4,3,2,1,5,6,7,8,{32}1,2,3,4,5,6,7,8,
1h[64:1],2h[64:1],3h[64:1],4h[64:1],5h[64:1],6h[64:1],7h[64:1],8h[64:1],
{4}1q7[16:5]/5q3[16:5],,,4b/8b,
{8}2-5[8:1]/6,1,7-4[8:1],8,2-5[8:1],1,7qq4[16:7],8,3,2,1,{16}8,8,{8},2b/6b,4b/8b,,
3/7-4[8:1],8,2-5[8:1],1,7-4[8:1],8,2-5[8:1],1,6,7,8,{16}15,4b/8b,{8},,,45,
{4}3^6[8:1]/6,8,3/6^3[8:1],1,{8}4w8[8:1],8w4[8:1],,,,7,6,5,
{16}4b,3,2,1,8,7,6,5,4b,3,2,1,8b,7,6,5,
{32}4b,3,2,1,8b,7,6,5,4b,3,2b,1,8b,7,6b,5,
4b,3b,2b,1b,8b,7b,6b,5b,{4}4b,
1h[16:11]/5h,,{16}2h,,,8h,,,,,
1,8,1,8,3,6,3,6,{4}1w5[8:1],1b,{16}1,8,3,6,1,8,3,6,{4}1w5[8:1],1b,
{16}1,8,1,6,1,5,1,4,{4}1w5[8:1],1b,{16}1,7,1,5,1,6,1,3,{4}1w5[8:1],1b,
{16}1,8,4,6,3,5,2,4,{4}1w5[8:1],1b,{16}1,8,2,5,4,7,2,4,{4}1w5[8:1],1b,
{16}1,5,3,7,4,8,3,4,{4}1w5[8:1],1b,{16}1,1,1,1,1,1,1,1,{32}1w5[8:1],8,7,6,5,4,3,2,{4}1b,
{1}3b/7b,2qq5[4:5]/7pp4[4:5],,,,
E

Re:MASTER


  • MASTER譜面のSLIDEの速度の修正を行いました。 -- けもがみ (2026-05-29 08:37:00)
名前:
コメント:

タグ:

+ タグ編集
  • タグ:
最終更新:2026年10月04日 09:38