|
EXPERT |
MASTER |
Re:MASTER |
| 譜面制作者 |
Jack |
はっぴー |
- |
BASIC
ADVANCED
EXPERT
(210)
{1}E3,E4,E5,E6,E7,E5,E3,C,{4},4b/5b,
3,4,3,25,6,5,6,47,8,1,8,27,6,57,3,24,
6,5,6,47,3,4,3,25,1,8,1,27,36,45,2x/7x,,
3h[4:1],4,45,56,7h[4:1],{8}8,8,{4}7,16,2,34,5,34,2^5[4:1],,,6,
7h[4:1],8,6h[4:1],5,3h[4:1],4,2h[4:1],1,38,{8}2,2,1,,7,7,{4}8,16,25,3x/4x,
6h[4:1],5,45,34,{1}B1/B2/B8/Ch[2:1],{4}7,56,4,56,7^4[4:1],,,3,
2h[4:1],1,3h[4:1],4,6h[4:1],5,7h[4:1],8,6,45,3,4^1[8:3]/5^8[8:3],,,,2x/7x,
{2}3h[2:1],C,{4}7,56,B1/B8,,6h[2:1],,C,,2,34,B1/B8,,
{8}7,7,8,,2,2,1,,8,8,{4}1^4[4:1]*^6[4:1],,,B1/B5/Cf,,,,{8}4x/5x,4x/5x,,2b/7b,,,,,
{4}18,35,18,46,{8}1,1,{4}8-4[8:1],1x,,3,24,6,57,{8}8x,8x,1x,1x-5[8:1],{2},
{4}46,18,35,18,46,46,37,1,{8}7x/8x,7x/8x,,1x/2x,1x/2x,,4x/5x,4x/5x,,2x-4[8:1]/7x-5[8:1],2x/7x,,,,1b/8b,,
{4}27,56,27,34,{8}8,8,{4}1-5[8:1],8x,,6,57,3,24,{8}1x,1x,8x,8x-4[8:1],{2},
{4}35,78,46,12,35,35,26,8,{8}1x/2x,1x/2x,,7x/8x,7x/8x,,4x/5x,4x/5x,,2x-4[8:1]/7x-5[8:1],2x/7x,,,,1b/8b,,
{4}2h[4:1],1h[4:1],8h[4:1],7h[4:1],Cf,,,,
3/8hx[4:3],3,3,3,2/4hx[4:3],2,2,2,1hx[4:3]/6,6,6,6,5hx[4:3]/7,7,7,7,
B3,E5,B6,E8,B1,E3,B4,E6,B7,E1,B2,E4,Ch[2:1],,,,
{2}6<3[2:1],,1h[2:1],{8}8,8,1x,,2,2,1x,,7,7,8x,,1,1,{4}8x-4[8:1],,,
12,12,78,78,56,57,34,24,15,26,37,48,15,2qq2[2:1]/6qq6[2:1],,,
{0.25} ,
{4}4/5hx[4:3],3,2,1,4hx[4:3]/8,7,6,5,2b/7b,,,,{8}1,1,8,8,{4}1,3x/6x,
18,57,18,24,{8}8,8,{4}1-5[8:1],8x,,56,25,34,47,{8}1x,1x,8x,8x-4[8:1],{2},
{4}35,18,46,18,{8}3,3,{4}4,25,47,{8}1x/2x,1x/2x,,7x/8x,7x/8x,,4x/5x,4x/5x,,2x^4[8:1]/7x^5[8:1],2x/7x,,,,1b/8b,,
{4}27,15,27,48,{8}1,1,{4}8-4[8:1],1x,,34,48,56,15,{8}8x,8x,1x,1x-5[8:1],{2},
{4}46,12,35,78,{8}6,6,{4}5,47,25,{8}7x/8x,7x/8x,,1x/2x,1x/2x,,4x/5x,4x/5x,,2x^4[8:1]/7x^5[8:1],2x/7x,,,,1b/8b,,
{4}2h[4:1],3h[4:1],4h[4:1],5,{8}7,7,4,4,5,5,2,2,{4}7h[4:1],6h[4:1],5h[4:1],4,{8}2,2,5,5,4,4,7,7,
{4}3h[4:1],4h[4:1],5h[4:1],6h[4:1],B1/B2/B7/B8/Cf,,,,
2,1,2,38,7,8,7,16,4,5,4,27,4x/5x,56,35,57,4x/5x,57,25,5<4[2:5]/8,
{1},,,,,
E
MASTER
(210)
{4}1>8[4:3]/5qq8[4:3],,,,,,1b,
{8}4/6-1[8:1],,5,5,,8,8,4,3-8[8:1]/5,,4,4,,1,1,5,
{4}4/6-1[16:1],2-5[16:1],7-4[16:1],3-8[16:1],6-3[16:1],2-7[16:1],5,1x/6x,
{8}3-8[8:1]/5,,4,4,,1,1,5,4/6-1[8:1],,5,5,,8,8,4,
{4}3-8[16:1]/5,7-4[16:1],2-5[16:1],6-1[16:1],3-6[16:1],7-2[16:1],4,3x/8x,
6h[4:1],8h[4:1],{8}3,3,1,1,8,8,{4}5qq3[8:1]*pp7[8:1],,,
{8}3,3,1,1,{4}6h[4:1],8h[4:1],3<7[4:1],7>3[4:1],3,7,
6h[4:1],8q1[4:1],,,8hx[4:1],6hx[4:1],4hx[4:1],2hx[4:1],
{8}1,1,3,3,5,4,{4}7-2[16:1],3-6[16:1],7-2[16:1],2,1x/5x,
{8}3,3,1,1,6,6,8,,{2}1^4[16:1]/7^4[16:1],2^5[16:1]/8^5[16:1],
{8}6,6,8,8,{4}3h[4:1],1h[4:1],6>2[4:1],2<6[4:1],6,2,
3h[4:1]/4,1,5/6h[4:1],8,{8}24,3,57,6,{4}34,5^2[8:1]/6,
7h[4:1],{8}8,8,,26,,37,1,1s5[8:3],,4b,{4},,
2>6[2:1],,8,8,7<3[2:1],,1,1,2>6[2:1],,B1/E1,B4/B5,7<3[2:1],,B8/E1,B4/B5,
{8}1-5[8:1],1,6,,8-3[8:1],8,3,,1,1h[8:5],8,8h[8:3],{2},
B1/B4/B5/B8/Cf,,{8}1x/8x,4x-1[8:1]/5x-8[8:1],,{32}4x/5x,E5,Cf,E1,{2},
{8}3/8^3[8:1],,5,5-2[8:1]*-8[8:1],,5,,1,8-4[8:1],2-6[8:1],8,2,1b,,28,,
4/7-4[8:1],,1,2-6[8:1],,7h[4:1],,3,2b/6b,3b/7b,2b/6b,3bpp5[8:1]/7bv4[8:1],{2},
{8}1^4[8:1]/5,,7,8-3[8:1]*-5[8:1],,8,,2,4-7[8:1],1-5[8:1],4,1,8b,,37,,
2-5[8:1],1,8,7-4[8:1],8,1,2-5[8:1],1,8,7,8,27,1-5[8:1]/8-4[8:1],,1x/8x,,
1^6[8:1]/6,,4,4-1[8:1]*-7[8:1],,4,,8,1-5[8:1],7-3[8:1],1,7,8b,,17,,
2-5[8:1],6,7,8-4[8:1],,2h[4:1],,7,3b/6b,2b/7b,3b/6b,2bpp4[8:1]/7bv1[8:1],{2},
{8}3/8^5[8:1],,1,1-4[8:1]*-6[8:1],,1,,7,5-2[8:1],8-4[8:1],5,8,1B,,27,,
6^3[8:1],8,1,2v7[8:1],1,8,6^3[8:1],8,1,2,1,27,1-5[8:1]/8-4[8:1],,1x/8x,,
{4}2-6[8:1]/6,2/7-3[8:1],4-1[8:1]/7,48,{8}2b/7b,2b/7b,{4},,B3/B6/C/E3/E7,
8,8,7,46,6/E4,6/E5,6/E3,6/E1,3,3,35,35,3/E6,3/E5,3h[8:1]/E7,E1,
{8}5,,6,6h[4:1],,8h[4:1],,1,1,3,3,5,5,4,6,6,
3,2h[8:1]/4h[8:1],,6,5h[8:1]/7h[8:1],,2,1h[8:1]/4h[8:1],,7,{4}5s1[4:1]/8,,,
{16}1,8,1,,{4}5^2[8:1]/7,6,{16}47,,8,1,{4}8,2/4^7[8:1],{8}3,3,25,,
{16}8,1,8,,27,,3,,3,4,2,,15,,6,,6,5,7,,48,,3,,1,8,1,8,27,,,,
{12}3,4,3,6,5,6,3,4,2,6,5,7,{16}1,8,2,7,3,6,4,5,{4}4-1[8:1],4x/6,
{12}6,5,6,3,4,3,6,5,7,3,4,2,{8}6,57,3,24,{16}1,8,2,7,3,6,4,5,
{4}1b,,,{16},,E5,E4,{4}E3,,,{16},,E5,E6,{4}E7,,,{16},,E5,E4,{4}E3,,,{8}5,5,
{4}3b/7b,4,4,{8}4,4,{4}2b/6b,5,5,{8}5,5,
{1}3b/7b,{8}46,7,35,2,45,,{16}3,4,2,,
{8}1V75[8:1]/6,,4,4-1[8:1]*-7[8:1],,4,,8,1-5[8:1],7-3[8:1],1,7,8b,,17,,
2-5[8:1]/5,,8,7-3[8:1],,2h[4:1],,6,3b/7b,2b/6b,3b/7b,2b/6b,,{16}4,5,4,,7,,
{8}3/8V64[8:1],,1,1-4[8:1]*-6[8:1],,1,,7,5-2[8:1],8-4[8:1],5,8,1b,,26,,
7-3[8:1],8,1,2-6[8:1],1,8,7-3[8:1],8,1,2,1,27,1-5[8:1]/8-4[8:1],,1x/8x,,
3/8V24[8:1],,5,5-2[8:1]*-8[8:1],,5,,1,8-4[8:1],2-6[8:1],8,2,1b,,25,,
7-4[8:1],3,2,1-5[8:1],,7h[4:1],,2,3b/6b,2b/7b,3b/6b,2b/7b,,{16}4,5,4,,2,,
{8}1V35[8:1]/6,,8,8-3[8:1]*-5[8:1],,8,,2,4-7[8:1],1-5[8:1],4,1,8b,,27,,
3-6[8:1],1,8,7-4[8:1],8,1,2-6[8:1],1,8,7,8,27,1-5[8:1]/8-4[8:1],,1x/8x,,
{4}3/7-3[8:1],2-6[8:1]/7,2/5-8[8:1],15,{8}17,5,36,4,57,6,45,3,
{4}2-6[8:1]/6,2/7-3[8:1],4-1[8:1]/7,48,{8}28,4,36,5,24,3,45,6,
{4}3/7-3[8:1],2-6[8:1]/7,25,{16}1,8,{8}1,2b/7b,2b/7b,{4},,45,
{8}3-8[8:1]/6,,4,4,,1,7,5,6-1[8:1],4,5,5,,{16}8,1,{8}8,4,
3-8[16:1],3,7-4[16:1],7,2-5[16:1],2,6-1[16:1],6,3-6[16:1],3,8-3[16:1],8,2-6[16:1],2,7-3[16:1],7,
8-4[16:1],8,1-5[16:1],1,2-6[16:1],2,8>7[2:5],8b,
{1},,,,,,
E
Re:MASTER
最終更新:2021年09月25日 09:51