アットウィキロゴ

taboo tears you up〈でらっくす〉

アーティスト REDALiCE (HARDCORE TANO*C)

BPM BASIC ADVANCED EXPERT MASTER Re:MASTER
180 3 7+ 10+ 14 -

EXPERT MASTER Re:MASTER
譜面制作者 はっぴー サファ太 -

BASIC


ADVANCED


EXPERT


MASTER

(180)
{8}5,5h[1:1],,4,,4,,4,,4h[4:1],,5,6-3[8:1],4,3,,
4,4h[8:7],,5,,5,,6,6p4[8:3],,,,,1b,1b,,
{16}2,,6,5,6,,7,,3,4,3,,2,,6,5,6,,7,,4,5,4,,3-5[8:1],,5,,36,,,,
6,,2,4,{8}3V51[16:5],5,6,6,7,7,2-8[8:1],4,2pp6[8:3],6,2,,,,
{16}7h[8:1],,3,4,3,,2h[8:1],,6,5,6,,7h[8:1],,3,4,3,,
2h[8:1],,5,4,5,,6-3[8:1],,4,,36,,,,
1h[8:1],,7,5,7,,8h[8:1],,2,4,2,,{8}1pp5[2:1],5,6b,6b,6b,6b,6b,,
7>5[4:12]/5,,{1}Cf,,,,

{2}5h[1:1],E6,4h[1:1],E4,5h[4:7],E6,4h[4:3],,
3^6[4:3],{8}8,8,8,,7p2[4:3],,,,8,8,8,,
1p8[4:3],,,,5,5,5,,B6,,B5,,B4,,B3,,
2>6[2:1],,,,8,8,8,,7<3[2:1],,,,1,1,1,,
2>7[8:5],,,,8,8,8<1[1:1],,{1}1b,{4}Cf,,,2b/8b,

{8}1-5[8:1],8,1,6,7^4[8:1],4,7,3,2-5[8:1],4,2,1,8,1/7h[4:1],,
{16}5,6,{8}5,7,78,16,25,{16}3,4,{8}2-4[8:1],6,2-8[8:1],8,2-6[8:1],4,2,,3x/7x,,
8-4[8:1],1,8,3,2^5[8:1],1,2,6,7-3[8:1],5,7,8,1,8/2h[4:1],,
{16}4,3,{8}4,2,12,38,47,{16}6,5,{8}7^4[8:1],1,7-3[8:1],3,7,2,1-5[8:1]/4,,1b/8b,,
{16}6,4,6,4,7,5,7,5,8,7,6,5,43,,2,1,3,8,4h[8:1],,7,5,6,4,5h[8:1],,3,4,2h[8:1],,
6,5,7,4,8h[8:1],,2,1,3,8,4h[8:1],,7,5,{8}6,48,3-6[8:1]/7-2[8:1],26,37,,4b/8b,,26,,
{16}3,5,3,5,2,4,2,4,1,2,3,4,56,,7,8,6,1,5h[8:1],,2,4,3,5,4h[8:1],,6,5,7h[8:1],,
3,4,2,5,1h[8:1],,6,5,7,4,8h[8:1],,2,1,{8}3-8[8:1],24,3b/5b,,6,6,5-8[8:1],6,4,,

E3,E4,E5,6,6,5,E8,E7,E6,4,4,5,E4/B4,C,E2/B1,,
8,8h[8:1],5,5h[8:1],E8,E7,E6,2,1-4[8:1],4V28[4:1],1,5,6,7,,,
E7,E6,E5,3,3,4,E2,E3,E4,5,5,4,E6/B5,C,E8/B8,,
1^4[8:1],1,4,5,6^1[8:1],6,2,3,{4}4w8[8:1],4,2b/6b,,

{16}3h[8:1]/5h[8:1],,,3h[8:1]/5h[8:1],,,3-5[8:1]/5,,,,6,,6,,,,
4h[8:1]/6h[8:1],,,4h[8:1]/6h[8:1],,,4/6-4[8:1],,,,3,,3,,,,
2h[8:1]/4h[8:1],,,2h[8:1]/4h[8:1],,,2-5[8:1]/4,,,,6,,6,,,,
5h[8:1]/7h[8:1],,,5h[8:1]/7h[8:1],,,5/7-4[8:1],,,,2,,2,,,,
1h[16:1]/4h[8:1],,,1h[8:1]/4h[16:1],,,1-5[8:1]/4,,,,4,,6,,,,
5h[8:1]/8h[16:1],,,5h[16:1]/8h[8:1],,,5/8-4[8:1],,,,5,,3,,,,
1h[8:1]/2h[16:1],,,1h[16:1]/2h[8:1],,,1/2-5[8:1],,,,4,,7,,,,
7h[16:1]/8h[8:1],,,7h[8:1]/8h[16:1],,,8/7-4[8:1],,,,5,,2>7[2:1],,,,{1}8h[1:1],,
{1}8hx[4:3]/B8,7hx[4:3]/B7,{4}6b/B6,6,6,6,5b/B5,5,5,5,
{8}4b/B4,4,4,4,3b/B3,3,3,3,2b/B2,2,2,2,1b/B1,1,1,1,
{32}1x/Cf,2x,3x,4x,5x,6x,7x,8x,1x,2x,3x,4x,5x,6x,7x,8x,
1x/Cf,2x,3x,4x,5x,6x,7x,8x,1x,2x,3x,4x,5x,6x,7x,8x,
1x/Cf,2x,3x,4x,5x,6x,7x,8x,1x,2x,3x,4x,5x,6x,7x,8x,
1x,2x,3x,4x,5x,6x,7x,8x,

{8}1b-5[8:1],,1/6-1[8:1],7,4-8[8:1]/6,3,2-5[8:1]/4,1,25,6,
7-3[8:1],8-4[8:1],7^4[8:1],8,7,2h[4:1],,
{16}8,1,{8}7-4[8:1],56,47,3,25,{16}6,5,
{8}7-3[8:1],8-4[8:1],7^4[8:1],8^3[8:1],7-3[8:1],8,7,,2b/8b-4[8:1],,
8/3-8[8:1],2,3/5-1[8:1],6,5/7-4[8:1],8,47,3,
2-6[8:1],1-5[8:1],2^5[8:1],1,2,7h[4:1],,
{16}1,8,{8}2-5[8:1],34,25,6,47,{16}3,4,
{8}2-6[8:1],1-5[8:1],2^5[8:1],1^6[8:1],2-6[8:1],1,2,,4b/8b,,
{16}6,3,5,4,7,4,6,5,7,8,6,1,4h[8:1],,2,5,3,4,2h[8:1],,1,3,8,4,6h[8:1],,8,7,8,,
78,16,25,,12,38,47,,25,,3,4,1,8,{8}5,46,3^6[8:1]/7^2[8:1],15,37,,3x/7x,,1b/5b,,
{16}3,6,4,5,2,5,3,4,2,1,3,8,5h[8:1],,7,4,6,5,7h[8:1],,8,6,1,5,3h[8:1],,1,2,1,,
12,38,47,,78,61,25,,47,,6,3,5,1,{8}4w8[8:1],26,{32}4b,Cf,,,,,,,{8},,1x/7x,2x/6x,3x/5x,,

4h[8:1],5,4h[8:1],5,3h[8:1],4,3h[8:1],4,2h[8:1],3,2h[8:1],3,1-3[8:1],1,4,,
5h[8:1],4,5h[8:1],4,6h[8:1],5,6h[8:1],5,7h[8:1],6,7h[8:1],6,8-3[8:1]*-5[8:1],8,,,
4h[8:1],5,4h[8:1],B5,3h[8:1],4,3h[8:1],B4,2h[8:1],3,2h[8:1],B3,1-5[8:1],2,8,,
7h[8:1],5,7h[8:1],B5,7h[8:1],6,7h[8:1],B6,8-6[8:1],7,3V51[4:1],4,8,8,,,
2h[8:1],5h[8:1],2h[8:1],5,3^5[8:1]/4^2[8:1],34,,,1-3[8:1]/6-4[8:1],16,,,2x/5x,2x/5x,2x/5x,,
4h[8:1],7h[8:1],4h[8:1],7,5^7[8:1]/6^4[8:1],56,,,3-5[8:1]/8-6[8:1],38,,,3-1[8:1]/8-4[8:1],38,,,
5h[8:1],1h[8:1],5h[8:1],1,2-5[8:1]/4-1[8:1],24,,,4-7[8:1]/8-5[8:1],48,,,4x/8x,4x/8x,4x/8x,,
7,7h[8:1],5,5h[8:1],4,4h[8:1],2,2h[8:1],8h[4:1],,{32}1x,2x,3x,4x,5x,6x,7x,8x,{4}1bw5[8:1],{1}Cf,,,,E

Re:MASTER


  • 追加しました。修正等ありましたらよろしくお願いします。 -- けもがみ (2021-09-29 03:42:39)
名前:
コメント:

タグ:

+ タグ編集
  • タグ:
最終更新:2026年05月21日 08:23