アットウィキロゴ

Good Bye, Mr. Jack

アーティスト sasakure.UK

BPM EASY BASIC ADVANCED EXPERT MASTER Re:MASTER
180 3 4 9+ 12+ 13+ -

EXPERT MASTER Re:MASTER
譜面制作者 Jack Jack -

EASY


BASIC


ADVANCED


EXPERT


MASTER

(180)
{16}4h[8:7]/5,,6,,,6,,,6,,,5,,,6h[1:1],,,,3,,,3,,,3,,,5,,,2h[1:1],,,,
7,,,7,,,7,,,4,,,8h[4:1],,,,1,,,18,,,57,,,24,,,4/5h[1:1],,,,
3,,,3,,,3,,,4,,,3h[1:1],,,,6,,,6,,,6,,,4,,,7h[1:1],,,,
2,,,2,,,2,,,5,,,1h[4:1],,,,8,,,18,,,24,,,57,,,45,,
3,,4,,25,,6,,6h[16:3],,,5,6,,5,,4>8[4:1]/6,,5,,7,,7,,6h[16:3],,,5,6,,5,,
3,,4,,25,,6,,6h[16:3],,,5,6,,5,,47,,36,,2h[4:1]/5,,4,,4h[16:3],,,3,4,,25,,
6,,5,,47,,3,,3h[16:3],,,4,3,,4,,3/5<1[4:1],,4,,2,,2,,3h[16:3],,,4,3,,4,,
{8}25,2/5h[4:1],3,4,36,27,1-5[8:1]/8-4[8:1],,{1}1b/8b,

{8}3/6h[2:1],,4,,5,6,4/7-4[8:1],,7/3h[4:1],,5,4,3,2^5[8:1]/5,,
2,7,8,16,2,1,38,7,7h[4:1],,{16}5,6,4,5,3,4,{8}2h[4:1],3,4,25,,
7-4[8:1],8,7,,2-6[8:1],1,2,,7,8-4[8:1],1-3[8:1],8,1,,
{16}6,5,{8}6,47,3,25,6,47,36,2h[4:1]/5,,{16}4,3,5,4,6,5,{8}7,8,1,2,
3h[4:1]/5,,4,3,4,3,2-5[8:1]/5,,2/6h[4:1],,4,5,6,7^4[8:1]/4,,
7,2,1,83,7,8,16,2,2h[4:1],,{16}4,3,5,4,6,5,{8}7h[4:1],6,5,47,,
2-5[8:1],1,2,,7-3[8:1],8,7,,2,1-5[8:1],8-6[8:1],1,8,,
{16}3,4,{8}3,25,6,47,3,25,6,{16}47,4,{2}5bw1[4:1],{8},37,,,

6h[1:1],,,5,,,5,{24}2,3,4,{8}5h[4:3],,,4,,,4h[4:1],,
3h[1:1],,,4,,,4,{24}7,6,5,{8}4h[4:3],,,5,,,5h[4:1],,
7h[1:1],,,6,,,6,{24}2,3,4,{8}5h[4:3],,,4,,,4h[4:1],,
2h[1:1],,,3,,,3,{24}7,6,5,{8}4h[4:3],,,5,,,5h[4:1],,

{16}7b,,,6,5,,{8}4/7h[8:1],6h[8:1],5h[8:1],4h[8:1],3h[8:1],{16}2h[16:3],,,
1,2,,7,8,7,,{8}6^1[8:1]/1,2,3h[4:1],,{16}4,3,4,,2/6h[4:1],,,,5,6,5,,37,,
2,4,2,4,3,4,3,4,2,4,2,4,3,4,3,4,2,4,2,4,3,5,3,5,4,6,4,6,5,7,5,7,
{8}6>1[4:1],,8,8h[4:1],,1,8,7,62,3,47,6,53,2,
1-5[8:1],8,1/7-4[8:1],,7/2^5[8:1],,{24}25,6,7,8,1,2,{4}3b,

{16}78,,,1-5[8:1]/2,,,18,,,,46,,,3/5p4[8:3],,,4,,,,,,
1,,,,24,,,57,,,1pp4[8:7]/8qq5[8:7],,,,{1}18,
{8}2V48[4:1]/7,,,1,,,2/7V51[4:1],,,8,,,
{16}2h[8:1]/4h[8:1],,,2h[8:1]/4h[8:1],,,2-4[8:1]/4-8[8:1],,,,24,,,,7-4[8:1],,,,1,,1,,,,
5h[8:1]/7h[8:1],,,5h[8:1]/7h[8:1],,,5-1[8:1]/7-5[8:1],,,,57,,,,
{8}2-5[8:1],,26,7-3[8:1],,27,1-5[8:1],,17,
{16}8h[8:1],,,1h[8:1]/7h[8:1],,,26,,,,4h[8:1],,,3h[8:1]/5h[8:1],,,
2-6[8:1]/6,,,,27,,8-4[8:1],,,,28,,1h[8:1],,,2h[8:1]/8h[8:1],,,
{4}3-5[8:1]/7,3/7-4[8:1],7/2-6[8:1],2/8-4[8:1],{8}8/4V28[4:1]*V68[4:1],,,,,

{2}5h[8:15],{8},,,{4}4,4^1[4:1],,,
{1}3h[8:17],{4}5,5^8[4:1],,,{8},
{2}7h[8:15],{8},,,{4}3,3^6[4:1],,,1h[2:3],,4,4,5,5-8[8:1],,{8}3,4,5,
2h[4:1]/6h[4:1],,,2/6-3[8:1],,2-5[8:1],,7h[4:1],,6,7,26,,
5,6,4/7h[4:1],,5,7,{16}6,5,{8}6,4/7p3[8:1],3,2,,2>6[4:1]/5,6,7h[8:3],,,1,2,
3h[4:1]/7h[4:1],,,3-6[8:1]/7,,7-4[8:1],,2h[4:1],,3,2,3h[4:1]/7,,
4,3,2h[4:1]/5,,4,2,{16}3,4,{8}3,2q6[8:1]/5,6,7,,7^4[8:1]/4,3,2h[4:1],,1,38,47,

{16}6,5,,3,4,,7,5,,2,4,,8,1,,3,4,3,4,3,4,3,2,1,8,7,6,5,{12}4,4,4,
{16}6,7,8,1,2,3,45,,,,27,,27,6,5,4,3,2,7,6,5,4,3,2,7,6,5,4,3,2,
1/8^5[8:1],,,,8,,3,,,1^4[8:1]/8,,,,1,,,5,4,6,3,6,3,7,2,7,2,8,7,6,1,2,3,
{2}4-8[8:1]/5-1[8:1],1^4[8:1]/8^5[8:1],
{16}2/7h[1:1],,,,1,2,3,4,5,,5,4,3,2,1,,2h[1:1],,,,8,7,6,5,4,,4,5,6,7,8,,
6h[1:1],,,,1,2,3,4,5,,5,4,3,2,1,,3h[2:1],,,,8,7,6,5,4,3,2,1,8,7,{4}63,

{16}34,,45,,6,5,,,1/6h[16:3],,,5,6,,47,,7^4[8:1]/8,,1,,7,8,,,3h[16:3],,,4,3,,25,,
56,,45,,3,4,,,3h[16:3]/8,,,4,3,,2^5[8:1]/5,,,,2/6h[16:3],,,8,,,2h[16:3]/4,,,8,,,17,,
56,,45,,3,4,,,3h[16:3]/8,,,4,3,,25,,1/2^5[8:1],,8,,2,1,,,6h[16:3],,,5,6,,47,,
34,,45,,6,5,,,1/6h[16:3],,,5,6,,4/7^4[8:1],,,,3h[16:3]/7,,,1,,,5/7h[16:3],,,1,,,38,,
1/2-5[8:1],,8,,2,1,,6,5,,7,8,7,,16,,7-4[8:1]/8,,1,,7,8,,3,4,,2,1,2,,38,,
1/2^5[8:1],,8,,2,1,,6,5,,7,8,7,,16,,7^4[8:1]/8,,1,,7,8,,3,4,,2,1,2,,38,,
78,,81,,2,1,2,,7-4[8:1],8,6,8,7,,3,,12,,18,,7,8,7,,2-5[8:1],1,3,1,2,,6,,
78,,12,,3,4,3,,6-1[8:1],5,7,5,6,,2,,3,6,2,7,1,8,1,,2b/7b,,,5b/8b,,,
{1}1b-4[8:15]/4b^6[8:15],,,,E

Re:MASTER


  • 追加しました。修正等ありましたらよろしくお願いします。 -- けもがみ (2021-09-30 02:45:58)
名前:
コメント:

タグ:

+ タグ編集
  • タグ:
最終更新:2026年10月04日 08:51