| アーティスト |
さつき が てんこもり feat.96猫 |
BASIC
ADVANCED
EXPERT
(148)
{4}5h[1:1],4,4,{8}3,3,{4}3h[1:1],4,2,4,
5h[2:1],4,4,5p4[2:1],,,,36,
4h[1:1],5,5,{8}6,6,{4}6h[4:1],5,7,5,
{8}5x/7x,,,3x,3x/4x,,,5,{4}45,36,1-5[8:1]/8-4[8:1],,
3b/6b,7h[8:1]/8h[8:1],5h[8:1]/6h[8:1],7h[8:1]/8h[8:1],
4h[8:1]/5h[8:1],1h[8:1]/2h[8:1],4h[8:1]/5h[8:1],5b/7b,
1b/6b,2-4[16:1],1-7[16:1],2q5[2:1],1x,,7,17,
3b/5b,1h[8:1]/2h[8:1],3h[8:1]/4h[8:1],1h[8:1]/2h[8:1],
4h[8:1]/5h[8:1],7h[8:1]/8h[8:1],4h[8:1]/5h[8:1],2b/4b,
3b/8b,2-6[16:1],8-4[16:1],3>6[2:1],6x,,5x,45,
2b/7b,7h[8:1]/8h[8:1],5h[8:1]/6h[8:1],7h[8:1]/8h[8:1],
1h[8:1]/8h[8:1],3h[8:1]/4h[8:1],1h[8:1]/8h[8:1],5b/6b,
4b/8b,7-5[16:1],8-2[16:1],7qq3[2:1],3x,,{8}1x,1x,1x,,
{4}2b/6b,3h[8:1]/4h[8:1],1h[8:1]/2h[8:1],3h[8:1]/4h[8:1],
1h[8:1]/8h[8:1],5h[8:1]/6h[8:1],1h[8:1]/8h[8:1],3b/4b,
1b/5b,24,56,45,{2}Chf[2:1],B2/B7,
1-4[4:1],5-8[4:1],{4}E1,C,E5,E4/E6,
7-4[4:1],,3-8[4:1],,E8,C,E4,E3/E5,
1^4[4:1],,6^1[4:1],,E2,C,E6,E5/E7,
7h[4:1],5h[4:1],4h[4:1],2h[4:1],{8}4,4,{4}3,56,47,
5h[4:3],4,4,6,4h[4:3]/5,5,3,5,
E6,B7/E7,E4,B2/E3,8p4[4:1]*q4[4:1],,,36,
1/2h[4:3],1,3,1,7h[4:3]/8,8,6,8,
{8}6,6,5,5,4,4,3,{16}3hx[16:3],,,4x,,,2x/5x,,,3x/6x,,,4x/7x,,,5x/6x,,,
{2}4hx[2:1]/5x,3-7[8:1],
{4}1b/6b,5h[8:1]/7h[8:1],1h[8:1]/2h[8:1],5h[8:1]/6h[8:1],
1h[8:1]/3h[8:1],5h[8:1]/6h[8:1],3h[8:1]/4h[8:1],4b/5b,
1b/8b,2-6[16:1],1-5[16:1],2pp6[2:1],7x,,8,17,
3b/5b,4h[8:1]/6h[8:1],1h[8:1]/2h[8:1],5h[8:1]/6h[8:1],
1h[8:1]/3h[8:1],5h[8:1]/6h[8:1],7h[8:1]/8h[8:1],4b/5b,
1b/2b-4[8:1],8-6[8:1],1-5[8:1],8<3[2:1],4x,,2hx[4:1],1,
3b/8b,5h[8:1]/6h[8:1],1h[8:1]/3h[8:1],6h[8:1]/7h[8:1],
2h[8:1]/4h[8:1],7h[8:1]/8h[8:1],4h[8:1]/5h[8:1],1b/2b,
4b/8b,7-4[16:1],8-3[16:1],7qq3[2:1],2x,,{8}1x,1x,1x,,
{4}2b/6b,3h[8:1]/4h[8:1],6h[8:1]/8h[8:1],2h[8:1]/3h[8:1],
5h[8:1]/7h[8:1],1h[8:1]/2h[8:1],4h[8:1]/5h[8:1],7b/8b,
1b/5b,24,56,45,{2}Chf[2:1],B2/B7,
{8}8,8,1,1,7,7,1,1,6,6,5,5,56,,47,,
56,5,5,5,57,7,7,7,{4}7/8h[4:1],7h[4:1],6h[4:1],5,
{8}4,4,5,5,3,3,5,5,2,2,1,1,12,,38,,
12,1,1,1,13,3,3,3,{2}3-6[16:1]/4-6[16:1],7-2[16:1]/8-2[16:1],
{4}3x/4x,34,{8}3h[4:5]/5,5,{4}5,4,1,4,2,
7h[4:3]/8,5,6,8>6[2:1],,,8x,8x,
1x/2x,12,{8}2h[4:5]/8,8,{4}8,1,4,5,1,
8-4[8:1],3-1[8:1],7-5[8:1],4>5[4:3],{1},
{4}Ch[2:1],,,1b/8b,
{16}2h[16:3],,,3h[16:3],,,4,,56,,,,
{2}4-8[8:1]/7-4[8:1],1-5[8:1]/6-1[8:1],{4}3x/7x,
{16}6h[16:3],,,7h[16:3],,,8,,{4}12,3/4-8[8:1],2,1-5[8:1]/7,6,47,
6-2[8:1],1>6[4:1],{8}8x,8,{4}8,7-3[8:1],4>7[4:1],{8}5x,5,5,,
{16}6h[16:3],,,5,,,47,,3h[16:3],,,4,,, 2h[16:3]/5,,,8h[16:3],,,6h[16:3],,,4h[16:3],,,2>8[1:1],,,
{1}Chf[16:17],,,,
E
MASTER
(148)
{4}4/5h[8:7],4,4,{24}3,,,3,5,4,{4}6h[4:3],5,7,5,
3/4h[8:7],3,2,{24}2,,,2,4,3,{4}5h[4:3],4,6^4[8:1],,
{4}6h[8:7],5,5,{24}4,,,4,5,3,{4}4h[4:3],3,2^4[8:1],,
{8}5hx[16:3]/7hx[8:3],,,3,2h[8:3]/4h[16:3],,,5,
6,4,3,7,{2}1-5[8:1]*-6[8:1]/8,
{4}4b/7b,{16}8,3,4,3,7,5,6,5,8,1h[8:1],,8,
,57,,34,,2,4,3,6,5,7,4,{4}8bp3[8:1]*q5[8:1],
8b,{16}2x/6x,,2x/6x,,3,4,1,,6,5,8,,
2h[8:1]/4,,5,4h[8:1],,7,5h[8:1],,{2}8-3[8:1]*-4[8:1],
{4}2b/5b,{16}1,6,5,6,2,4,3,4,1,8h[8:1],,1,
,24,,56,,7,8,6,3,4,2,8,{4}1b-5[8:1],
1b/4b,{16}6,4,6,4,7z3[4:1],3,7,3,7x,,,,
{8}1-5[8:1],,5-3[8:1],6,{4}7h[4:1],1>7[4:1],
Cf,{16}8x,,8x,,7,3,4,3,8,1h[8:1],,8,
,24,,56,,7,5,6,3,4,2,5,{4}1bq6[8:1]*p4[8:1],
1b,{16}3x/7x,,3x/7x,,6,5,8,,3,4,1,,
5/7h[8:1],,4,5h[8:1],,2,{8}4h[8:1],1xv4[8:1]*v6[8:1],2x/8x,,,
{4}3b/7b,{16}2,6,5,6,1,4,3,4,2,8h[8:1],,1,
,24,,56,,7,8,6,3,4,2,8,{4}1b-5[8:1],
1b/4b,{16}6,4,6,4,7z3[4:1],3,7,3,7x,,,,
{8}1-5[8:1],,5,6,3b/7h[2:1],,,,
1^4[2:1],,,4,5,,7,,8^5[2:1],,,5,4,,1,,
{4}1h[4:3],3,5,4<8[4:1],3,5>1[4:1],8,7,
{8}7^4[2:1],,,B5/B6,B2/B3,,1,,2^5[2:1],,,B3/B4,B6/B7,,8,,
{16}7h[4:1],,,5,5h[4:1],,,4,4h[4:1],,,3,3h[4:1],,,4,
{8}4-6[8:1],3,2-4[8:1],2,8-2[8:1],8,5,,
{4}4h[8:1],4h[8:1],4h[8:1]/5h[8:1],4h[8:1]/7h[8:1],
5h[8:1]/6h[8:1],2h[8:1]/4h[8:1],5h[8:1]/7h[8:1],3h[8:1]/4h[8:1],
{8}56,7,34,2,45,6,4/5pp5[4:1],3,{4}4h[2:1]/5qq5[4:1],,,37,
4/5h[8:1],2/5h[8:1],4h[8:1]/5,4h[8:1]/7,
4/6h[8:1],2/4h[8:1],5h[8:1]/6,3h[8:1]/4,
{8}45,4,{16}6,5,7,,48,,3,4,2,,1h[16:3]/5,,,
4h[16:3],,,2h[16:3],,,6h[16:3],,,5h[16:3],,,7h[16:3],,,
{2}Ch[2:1],8-3[8:1]*-4[8:1],
{4}1b/6b,{16}8,2,4,3,7,4,6,5,8,1h[8:1],,8,
,57,,34,,2,4,3,6,5,7,4,{4}8bp3[8:1]*q5[8:1],
8b,{16}2x/6x,,2x/6x,,3,5,1,,6,4,8,,
1/7h[8:1],,4,5h[8:1],,2,3h[8:1],,{2}1-5[8:1]*-6[8:1],
{4}3b/8b,{16}1,7,5,6,2,5,3,4,1,8h[8:1],,1,
,24,,56,,7,8,6,3,4,2,8,{4}1b-5[8:1],
1b/4b,{16}6,4,6,4,7s3[4:1],3,7,3,7x,,,,
{8}1-5[8:1],,5-2[8:1],6,7-4[8:1],8,1>7[4:1],,
Cf,,8x,8x,{16}7,2,4,3,8,2h[8:1],,1,
,34,,56,,7,5,6,3,4,2,5,{4}1bp4[8:1]*q6[8:1],
1b,{16}3x/7x,,3x/7x,,6,4,8,,3,5,1,,
7h[8:1]/8,,4,5h[8:1],,2,{8}3h[8:1],1x^4[8:1]*^6[8:1],2x/8x,,,
2b/8b,,{16}3,7,5,6,1,4,2,3,2,1h[8:1],,2,
,34,,65,,7,8,6,3,4,2,7,{4}1b-5[8:1],
1b/4b,{16}6,4,5,3,7s3[4:1],2,6,3,7x,,,,
{8}1-5[8:1],,5-1[8:1],6,{2}7b`Cf,
{8}1>8[8:9],,,4,4x<2[1:1],,,7,{4}7>4[8:7],E6,E4,C,
{8}5<3[4:3],,,2,1,,,{16},4,4h[4:1],,,3,3h[4:1],,,2,2x-6[8:1],,,5,5>5[4:3],,,,
{8}1,,,4,5>5[1:1],,,8,{4}1<5[2:1],E1,C,E5,
{12}7,5,6,3,4,2,6x,5,7,{8}4,4,3-5[8:1],2,1-3[8:1],8,7x-1[8:1],6,5,,
{4}4h[8:1]/5h[8:1],4h[8:1]/8h[8:1],4h[8:1]/5h[8:1],4h[8:1]/7h[8:1],
{8}4h[8:1]/8,7,5h[8:1]/6,7,4/8h[8:1],5,6/7h[8:1],5,
3/4h[8:1],2,1/5h[8:1],2,3h[8:1]/4,5,4/5qq5[4:1],6,{4}4h[2:1]/5pp5[4:1]*pp5[4:1],,,36,
4h[8:1]/5h[8:1],1h[8:1]/5h[8:1],4h[8:1]/5h[8:1],2h[8:1]/5h[8:1],
{8}5h[8:1]/6,7,4/8h[8:1],5,6/7h[8:1],5,3/4h[8:1],2,
1/5-7[8:1],6,4-2[8:1],3,5-1[8:1],6,4,
{16}3h[16:3],,,1h[16:3],,,7h[16:3],,,5h[16:3],,,3h[16:3],,,5h[16:3],,,
{4}Ch[2:1],,8-3[8:1]*-4[8:1],Cf,
1x/6x,{16}3,4,,7,8,,6,6,5,,1,1,8h[8:1],,5,6h[8:1],,7,5h[8:1],,{8}1-5[8:1],4,8x,,
8h[8:1],5h[8:1],8-4[8:1],{16}5,5,,2,2,,12,,3h[16:3]/8,,,
1,1,2,4,4,{8}3-7[8:1],5-1[8:1],,,,2x/7x,{16}3,3,5,5,4,4,{8}6-2[8:1],57,6,,
{16}3^8[8:1],4,,4,{8}3,5,6w2[8:1],57,,,4/8h[4:1],,
{16}3,25,,6,4/7-3[8:1],,5,5,,8,
8^3[16:5],,,2^5[4:1],,,4^7[4:1],,,6^8[16:3],,,8>8[1:1],,,
{1}Chf[16:17],,,,
E
Re:MASTER
最終更新:2026年04月12日 09:27