アットウィキロゴ

僕は空気が嫁ない〈でらっくす〉

アーティスト cosMo@暴走P

BPM BASIC ADVANCED EXPERT MASTER Re:MASTER
192 2 7 10 13 -

EXPERT MASTER Re:MASTER
譜面制作者 サファ太 はっぴー -

BASIC


ADVANCED


EXPERT

(192)
{1}3h[1:1],4h[1:1],5h[1:1],{2}6,56,
5h[4:1]/6h[4:1],4h[4:1]/5h[4:1],3h[4:1]/4h[4:1],4h[4:1]/5h[4:1],
{4}6,56,3,34,5x,5x,4x/6x,,
2,3,5,46,7,6,4,35,2,3,5,46,7,7,57,,
6,56,3,34,6,56,3,24,3h[4:3],1,1,1,{8}8x,8x,,1x/7x,{4},,
2,3,5,46,7,6,4,35,2,1,7,68,1,2,38,,
2h[2:1],,4,5,6h[2:1],5,5,7,8-5[4:1],,1-4[4:1],,5,5,4x/6x,,
3h[1:1],4,4,5,6h[1:1],4,5,5,5,7,56,4,5h[4:1]/6h[4:1],,47,,
6h[1:1],5,5,4,3h[4:3],5,4,4,34,2,1,8^5[8:3],,,,3x/4x,
2h[4:1],3h[4:1],4,45,7h[4:1],6h[4:1],5,45,
3h[4:1],2h[4:1],1,12,3h[4:1]/8h[4:1],,1h[4:1]/6h[4:1],,
7-4[8:3],,3,3,2-5[8:3],,6,6,{8}57,,4,4,,35,{4}35,2,1,3b/8b,,
E2,C,E6,,E8,C,E4,,E5,C,E1,,B3/B6/Ch[2:1],,,,
1-5[4:1],,8-4[4:1],,1-5[4:1],,8,8,
{8}5h[4:1]/7h[4:1],,,4h[4:1]/6h[4:1],,,35,,2b/6b,,,,,5x,5x,,
{4}34,56,7x/8x,7x/8x,12,34,5x/6x,5x/6x,
7h[4:1],5h[4:1],4h[4:1],2,12,{8}38,3b/8b,,,
{2}2x-7[4:1],6-3[4:1],2-7[4:1],6-3[4:1],{4}1,
1h[4:1],2h[4:1],3h[4:1],4>6[2:1],,,,1x/6x,
78,56,2x/4x,2x/4x,18,57,3x/4x,3x/4x,
2h[4:1],4h[4:1],5h[4:1],7,78,{8}16,16,,,
{2}8^5[4:1],1^4[4:1],{4}6h[4:1],5,3h[4:1]/7,4,45,
{8}57,57,57,,24,24,24,,{4}3b/4b,1b/2b,7b/8b,5b/6b,
{8}2b/7b,2b/7b,,,,45,45,,{4}6,57,8,57,
{2}6-1[4:1],2-5[4:1],7h[2:1],8,
{4}E1,C,E4,E3,E2,C,B5/B6,,{8}7,7,8,,2,2,1,,18,,2x/7x,2x/7x,,,45,,
2h[8:3],,4,4,,15,15,,{4}24,3,45,6,
{2}7-4[4:1],2-6[4:1],7h[2:1],{4}8,5q2[4:1]/6^1[4:1],
,,3x/4x,3^8[4:1]/4p7[4:1],,,5x/6x,56,
{8}47,47,47,,25,25,25,,{4}3b/4b,1b/2b,7b/8b,5b/6b,
{8}4b/7b,4hx[8:7]/7b,{4},,,{1}6h[1:1],5h[1:1],{4}4h[2:1],,3,34, 3,4,35,6,3,4,35,6,57,46,35,24,34,56,
{8}27,27,27,2b/7b,
{1},,,
E

MASTER

(192)
{1}4-1[4:3],8-5[4:3],2^7[4:3]*v4[4:3],
{4},4x,{16}4,5,4,5,4,,,,
{4}3h[4:3]/6,6,6,{8}5,{4}5-8[8:1],4-1[8:1],8x,{16}7x,,1,8,1,,
{8}27,6,35,2,18,7,56,4,{16}3,5,3,5,3,5,3,5,4-2[8:1],6,4,6,,,,,
{4}1/7-4[8:1],3-8[8:1],6^3[8:1],2^7[8:1],5-2[8:1]*-8[8:1],5x,4-1[8:1]*-7[8:1],4x,
8^5[4:1],5-1[4:1],1^4[4:1],4-8[4:1],8^5[4:1],5,{8}3,4,35,,
{4}6-3[8:1],2-5[8:1],6^1[8:1],3-7[8:1],5-2[8:1]*-8[8:1],5x,1-4[8:1]*-6[8:1],1x,
{8}5x,5x^2[8:1]*^8[8:1],,,,1x,1x,8,27,6,25,1b,,{16}3,4,3,,25,,
{4}2-5[8:1]/8,6-1[8:1],3^6[8:1],7^2[8:1],4-1[8:1]*-7[8:1],4x,5-2[8:1]*-8[8:1],5x,
1^4[4:1],4-8[4:1],8^5[4:1],5-1[4:1],1^4[4:1],4,6h[4:1],4,
{8}3^8[8:1],3,,4,{4}4,5,4/6-2[8:1],3-7[8:1],5-1[8:1],4,
{8}8,8,17,17,26,26,35,35,4-2[8:1],4-6[8:1],,,,{16}3,4,3,,,,
{4}26,2/6-3[4:1],2,2,23,2/3-6[4:1],2,2,26,2/6^3[4:1],2,2,23,2/4-7[4:1],2,3h[4:1],
1h[4:1],8h[4:1],6h[4:1],4,{16}46,,,35,,,{8}24,2h[4:1]/4,,8,8,
{16}4x/7x,,,3x/6x,,,{8}2hx[4:1]/5x,,6,,26,37,4-1[8:1]/8v5[8:1],,,,2x/6x,2x/6x,,
{16}47,,,,35,,,3,{8}4,15,1-5[8:1]/5,,1x/7,,{16}46,,,6,{8}5,48,4/8-4[8:1],,
2/8x,,{16}35,,,2,{8}4,15,{4}1-5[8:1]/5,1x/7,46,25,3-8[8:1]/4-7[8:1],
3x/4x,3-1[8:1]/4-8[8:1],3x/4x,34,{16}2x/8x,,,1x/7x,,,{8}4x/6x,4x/6x,,18,27,
3/6^3[8:1],,2,2,,8,8,1/7^4[8:1],,2,2,1^4[8:1]/5,,8,8,,
{4}3x/7x,6h[4:1],8h[4:1],1h[4:1],3h[4:1],4h[4:1],5h[4:1],6h[4:1],
3h[4:1],7,{16}57,,,46,,,35,,{4}3w7[4:1]/5,,,1x-5[8:1],
7-3[8:1],2-6[8:1],8-4[8:1],1,2,2-6[8:1]/8-4[8:1],2x/8x,3h[4:1],
{8}8V63[4:1],,2,2,,1,1q5[8:1]/8h[4:1],,1x,,,,,45,45,,
2^7[8:1],4,2,5,2^7[8:1],4,2,5,7^2[8:1],5,7,4,7^2[8:1],5,7,4,
3^6[8:1],3,7p3[8:1],7,2^7[8:1],2,6pp4[8:3],6,3,3,2,2h[4:1],,{16}4x,5x,1x/6x,,,,
7h[16:3],,,6h[16:3],,,{8}5,5,,46,{16}5x,6x,{8}7x,1-5[8:1],1,8-4[8:1],,1x,,1-5[8:1]/7-3[8:1],
17,,,2-6[8:1]/8-4[8:1],28,,,35,35,26,26,B1/B3/B5/B7/Cf,,8x,8x,,
7^4[8:1],2,7,1,6^3[8:1],2,6,1,2^5[8:1],7,2,8,3^6[8:1],7,3,8,
7^2[8:1],7,3p7[8:1],3,6^3[8:1],6,2pp8[8:3],2,7,7,6,6h[4:1],,{16}5x,4x,3x/7x,,,,
2h[16:3],,,3h[16:3],,,{8}4,4,,28,{16}5x,4x,{8}3x,5-8[8:1],5,4^1[8:1],,5x,,6,
47,47,3,3,25,25,6,6,{16}4,5,4,5,4,5,4,5,3,6,3,6,4,5q3[8:3]*<3[8:3],4,,
{4},,,8h[4:1],1v4[8:1]*v6[8:1],1x,5-2[8:1]*-8[8:1],5x,
1^4[4:1],4-8[4:1],8^5[4:1],5-1[4:1],1^4[4:1],5,{8}6,5,46,,
{4}3-7[8:1],6-1[8:1],3^6[8:1],8-4[8:1],1^4[8:1]*^6[8:1],1x,5-2[8:1]*-8[8:1],5x,
{8}37,3/7p2[8:1],,1h[4:1],,8,8,37,4-2[8:1],4-6[8:1],,,,{16}4,5,4,5,4,,
{8}2^5[8:1],,6,6^1[8:1],,3,{4}3-6[8:1],8v3[8:1]*v5[8:1],8x,4-1[8:1]*-7[8:1],4x,
4x/8-4[8:1],1x/8x,1-5[8:1]/5x,1x/8x,4-2[8:1]/8-4[8:1],4x/8x,1-5[8:1]/5-7[8:1],1x/5x,
{8}8,8h[4:1],,5,5,4,4,6,{4}2h[4:1],4h[4:1],5h[4:1],7,
{8}7-4[8:1]/8-3[8:1],1x/6x,,,7-3[8:1]/8-4[8:1],1x/6x,,,
7-5[8:1]/8-4[8:1],1x/6x,,,{16}1,2,3,4,5,6,7,8,
{4}Ch[1:2],,,,E8,E1,E2,E3,E4,E5,E6,E7,C/E8,E1,E2,E3,
C/E4,E5,E6,E7,C/E8,E1,E2,E3/E7,45,36,{8}6,5,4,3,
{16}3h[16:3],,,4h[16:3],,,{8}5,5,5xw1[8:1],4x/6x,5x,
{1},,,
E

Re:MASTER


名前:
コメント:

タグ:

+ タグ編集
  • タグ:
最終更新:2026年04月08日 20:33