BASIC
ADVANCED
EXPERT
MASTER
(201)
{1}3h[1:2]/5,,6h[2:4],{2}5,4,{1}3<2[8:27],7,6,5h[1:1],
(199)Cf,{2}8,7,6h[1:1],,5h[2:1],{16}4,3,2,1,8,7,6,5,
(201)
{8}24,1,78,6,4-8[8:1]/5,3,24,,
2,3,5-1[8:1],6,57,8,27,6,4-8[8:1]/5,3,24,,
7,6,4,3,25,3,47,6,52,3,47,6,
25,{16}3,3,{8}4,2,1-5[8:1]/5,6,71,,
46,7,35,2,47,{16}6,6,{8}5,7,8-4[8:1]/4,3,28,,
35,2,46,7,25,{16}3,3,{8}4,2,{16}8,7,6,5,8,1,2,3,
{8}4/7b-4[8:1],,2-8[8:1],,5V73[4:1],,3,3-7[8:1],,1-3[8:1],,6pp4[8:3],,4,,
2h[8:3],,3,4qq5[8:3],5,6,,8,8-4[8:1],,4-8[8:1],,3,,2,2,38,
7^4[8:1],4-7[8:1],7V51[4:1],2,,3,3,,2^5[8:1],5-2[8:1],2V48[4:1],7,,6,6,,
{16}17,,6,5,6,,28,,3,4,3,,17,,6,5,6,,{8}28,17,86,57,34,71,46,
(198)
{1}1b/Cf,{2}E8,E1,{1}E2,2^7[4:18],
{64}B6,E6,,,,,,,,,,,,,,,{4},,,
{64}B3,E4,,,,,,,,,,,,,,,{4},,,
{48}6,5,4,,,,,,,,,,{4},,,
{48}3,4,5h[24:11],,,,,,,,,,{4},,,
{8}3/E6,3,3/E7,3,3/E8,,2/E6,2,2/E7,2,2/E8,,1/E6,1,1/E7,,
6/E4,6,6/E3,6,6/E2,,7/E4,7,7/E3,7,7/E2,,8/E4,8,8/E3,,
4/E7,4,3/E8,3,2/E1,,5/E3,5,6/E2,6,7/E1,,4/E7,4,3/E8,,
6/E5,6,7/E4,7,8/E3,,3/E5,3,2/E6,2,1/E7,,{16}6,5,4,3,2,1,8,7,
(200)
{2}6hx[32:15]/2hx[32:15],{32}3b/7b,4b/8b,1b/5b,,,,,,{8}8,8,
{32}17,6,5,4,{8}1,1,{32}28,3,4,5,{8}8,8,1,1,
{32}78,6,5,4,{8}8,8,{32}12,3,4,5,{8}1,1,8,8,
1-3[8:1],8-6[8:1],1,8,1-5[8:1],8-4[8:1],1,8,{2}2bs6[4:1],{8}8,,7,7,
{32}16,5,4,3,{8}1,1,{32}83,4,5,6,{8}8,8,2-4[8:1],1,
2,7-5[8:1],8,7,2-5[8:1],1,2,7-4[8:1],8,7,3,3,{16}5,4,6,3,7,2,
8h[4:1],,,,2,1,3h[8:1],,7,8,6h[8:1],,3,4,2h[8:1],,6,5,7h[8:1],,3,4,3h[8:1],,6,5,6,5,7,4,8,3,
1h[4:1],,,,E2,E3,E4,,8h[4:1],,E8,E7,E6,,1h[4:1],,E3,E4,E5,,8h[4:1],,E7,E6,E5,,,,
2x/7x,,3x/6x,,4hx[4:1]/5x,,,,5,4,6,4,6,4,7,4,7,4,8,4,8,4,8,4,8,4,8,3,8,3,8,2,8,2,8,1,8,1,
{8}2b/7b,,56,4b/7b,,34,2b/5b,,56,4b/8b,,34,1b/5b,6,3b/7b,,
15,15,26,26,73,73,84,84,1bs5[16:5]/5b,,,,,,36,1b/8b,
(202)
,{24}1,2,3,7-1[8:1],,,2,3,4,7-5[8:1],,,2,3,4,7-3[8:1],,,1,2,3,
{4}4b-1[8:1]/7,4/8bw4[8:1],8b,2b/6b,
{8}1-6[8:1],6-1[8:1],1-4[8:1],4-1[8:1],5<4[8:3],5,{4}5b,,{8},
27,{16}2x/7x-4[8:1],3x,{8}4x-8[8:1],2,{4}2-4[8:1],2/6-1[8:1],6/3-7[8:1],8<1[8:2]/3,8/Cf,,
{8}37,2-5[8:1],5-1[8:1],6,{4}8^5[8:1],8/4-8[8:1],{8}34,
{16}2h[16:3],,,1,{8}2,38,27,{16}8-3[8:1]*-5[8:1],1,7,,{4}8b/B2/E3/B6/E6/Cf,,{4}1b/8b,
{24}7,6,5,2-4[8:1],,,8,7,6,2-8[8:1],,,7,6,5,2-6[8:1],,,7,6,5,
{4}4b-8[8:1]/2b,4b/1bw5[8:1],1b,3b/7b,
{8}8-3[8:1],3-8[8:1],8-5[8:1],5-8[8:1],4>5[8:3],4,{4}4b,,{16},,
3,5,{8}3,26,37,4-2[8:1]/8-6[8:1],,4/8-4[8:1],,83,3,2,15,1^4[8:1]/5^8[8:1],,5p4[16:5]/1,,7,,6,6,3,
25,,37,3h[8:5]/7,,,,,{4}2h[24:17],,6h[24:5],{24}1/5h,8/4h,7/3h,6/2h,5/1h,4/8h,
{4}3b/7h,,{8},{16}5,4,5,,46,,7,,7h[8:1],,6,7,6,7,5,4,3,2,18,7,6,5,
{8}4<2[4:1]/2,,3,3h[8:3],,,{16}4,3,
{4}2-5[8:1]/5,2/6-2[8:1],6/3^8[8:1],3/6p4[8:3],{8}1,1h[8:2],,,1,24,3,46,5,
24,{16}3,4,2h[8:1],,6,5,7h[8:1],,3,4,2>8[4:1],,1,8,2b,,,,,,7x,6x,{4}5x-8[8:1],35,
1b-6[8:1],1b-4[8:1]/3,1b^6[8:1]/7,1b/3<2[16:5],
3b/7b,,{16},,4,5,4,,35,,2,,2h[8:1],,3,2,3,2,4,5,6,7,18,2,3,4,
{8}5V31[16:3]/7,,8,8h[4:1],,{16}1,7,2,6,3,5,
1h[8:1],,4,2,8h[8:1],,5,7,1h[8:1],,4<2[4:1],2,8,,{4}4b,{16},,,,
5,3,{8}5,46,37,{16}2h[4:1]/8,,,,1,2,8,,4/7h[8:1],,5,7,4,6,3,5,2,4,
1h[4:1],,,,8,,27,,,,18,,8,7,1,2,8,7,1,2,7,6,2,3,7,6,2,3,6,5,3,4,{8}5/8h[2:1],,,1,1,,36,,
(196){32}2b/8b,3,4,5,6,7,8,1,2b/6b,5,4,3,2,13,84,75,(190){2}6b,
(198){8}3,3,4,3,4h[4:1],,3,4,(196)4,3,4h[4:1],,3,4,34,,
(194)6,6,5,6,5h[4:1],,6,5,5,6,5h[4:1],,6,5,56,,
3,3,4,3,4h[8:3],,5,5,(192)4,5,4h[4:1],,3,4,35,,
(188)6,5,5,6,(183)5h[472:179],,(177)4,4,(170)5,4,5h[4:1],,
(150)6h[8:1],5h[8:1],(133)4h[8:1],(115)3h[8:1],
(133){32}6b,5,4,{1}3^6[32:37],,,,E
Re:MASTER
- BPMは推定なので厳密には間違っている可能性があります。修正等ありましたらよろしくお願いします。 -- けもがみ (2021-11-05 04:52:41)
- BPM、配置ミス、スライドの速さを修正しました。 -- けもがみ (2026-01-25 13:30:21)
最終更新:2026年04月11日 20:59