BASIC
ADVANCED
EXPERT
(178)
{4}6x,5/7-4[4:1],,,3x,2-5[4:1]/4,,,
6x,5/7-4[4:1],,,{8}3,3,{4}4,34,25,
1b/8b,7,56,7,18,2,34,2,18,7,56,7,18,27,36,,
78,6,45,3,12,3,45,6,78,6,45,3,12,45,2b/7b,,
6h[4:3],5,5,5,5x/6x,4x/5x,3x/4x,,
3h[4:3],4,4,4,34,4h[4:1]/5h[4:1],,,
6h[4:3],5,5,5,56,45,34,,3h[4:1],4,25,,56,4/7p3[4:1],,,
2h[4:1],3^6[4:1],,,7h[4:1],6^3[4:1],,,
2h[4:1],4h[4:1],5h[4:1],7h[4:1],8,16,25,,
E5,E6,E7,E8,E1,E2,E3,E4,{1}5hx[1:1],1s5[2:1],
{16}4x/6x,,,4x/6x,,,,,3x/5x,,,3x/5x,,,,,
4x/6x,,,4hx[16:3]/6x[16:3],,,,,{2}3x/7x,
{16}28,,,28,,,,,17,,,17,,,,,28,,,2h[16:3]/8h[16:3],,,,,{2}37,
{16}35,,,35,,,,,46,,,46,,,,,35,,,3h[16:3]/5h[16:3],,,,,{2}26,
7hx[16:3]/8hx[16:3],1hx[16:3]/2hx[16:3],{4}45,45,36,36,
{2}2V41[4:3]/7V58[4:3],,,4b/5b,
1b-5[8:1]/2h[4:1],7h[4:1]/8-4[8:1],1-5[8:1]/2h[4:1],B3/B6/Cf,
{8}1x,1x,{4}8x,18,67,45,23,1b/8b,,
{2}7hx[4:1]/8x-4[8:1],1-5[8:1]/2h[4:1],7h[4:1]/8-4[8:1],B3/B6/Cf,
{8}8x,8x,{4}1x,18,24,18,57,1b/8b,,
1>6[2:1],,7,7,8<3[2:1],,2,2,18,57,45,24,18,18,2x/7x,,
{2}3h[4:1]/4b-8[8:1],5-1[8:1]/6h[4:1],3h[4:1]/4-8[8:1],B3/B6/Cf,
{8}1x,1x,{4}8x,18,36,{8}7x/8x,,,56,4x/7x,,,34,,34,,18,2b/7b,,,,
{4}3h[2:3]/5,4,4,4,E4,E5,E6,,4x/6hx[4:7],5,5,5,E6,E5,E4,C,
E5,E7,E1,E3,C,E7,E6,E3,E4,E5,C,E1,1x/8x,27,3b/6b,,
{2}6h[2:1],5h[2:1],4h[2:1],3,B6,B5,B4,B3,
{4}5/6h[4:1],5,56,,3h[4:1]/4,4,34,,{1}Chf[1:1],B3/B6,
{2}7b-5[8:1]/8b-4[8:1],1-5[8:1]/2-4[8:1],7-5[8:1]/8-4[8:1],B3/B6/Cf,
{8}2x,2x,{4}1x,34,18,56,18,3b/6b,,
{2}1x-5[8:1]/2x-4[8:1],7-5[8:1]/8-4[8:1],1-5[8:1]/2-4[8:1],B3/B6/Cf,
{8}7x,7x,{4}8x,56,47,34,25,1b/8b,,
8V64[2:1],,3,2,1V35[2:1],,6,7,18,67,45,23,18,27,3x/6x,,
{2}7b-4[8:1]/8b-4[8:1],1-5[8:1]/2-5[8:1],7-4[8:1]/8-4[8:1],B3/B6/Cf,
{8}8x,8x,{4}1x,18,36,{8}1x/2x,,,34,2x/5x,,,18,,18,,34,2x/5x,,34,2x/5x,,18,,45,3b/6b,,,,
{4}2hx[4:1],4h[4:1],5h[4:1],7h[4:1],E5,E7,E1,E3,
7hx[4:1],5h[4:1],4h[4:1],2h[4:1],E5,E3,E1,E7,
3hx[4:1],1h[4:1],8h[4:1],6h[4:1],E1,E7,E5,E3,
6hx[4:1],8h[4:1],1h[4:1],3h[4:1],E1,E5,C,E3/E7,,
{1}1x/8x,,,
E
MASTER
(178)
{4}26,B3/B4/B5,,,37,B4/B5/B6,,,
26,B3/B4/B5,1-5[8:1],,{8}8,8,17,17,{4}2-6[8:1]/6,5<4[4:3],
{1}Cf,{4}3,24,6,57,3^6[8:1],8,7^2[8:1],4,3^6[8:1],8,7h[4:1],4,
6^3[8:1],1,2^7[8:1],5,6^3[8:1],1,2h[4:1],5,
3^6[8:1],8,7^2[8:1],4,3h[4:1],5,{8}26,26,26,,
{4}5,4-1[4:1]/5,5,5,5/E2,5/E3,5/E4,{8}5,4,
{4}45,4-2[8:1]/5,5,5,15,1-4[4:1]/5,5,5,
4,4/6-8[8:1],4,{8}4,8,{4}48,48,47,{8}47,6,
{4}56,45,3h[4:1]/6h[4:1],{8},45,{4}4-8[8:1]/5-1[8:1],,{8},1x/8x,1x/8x,,
{4}56,7-3[8:1]/8-4[8:1],,{8},34,{4}34,1-5[8:1]/2-6[8:1],,{8},56,
47,,34,25,,1,{4}1>5[4:1],5<1[4:1],1,{8}5,5x,4x/6x,,
{4}8-5[8:1],5,1-4[8:1],4,7-5[8:1],1-3[8:1],8-4[8:1],1>8[4:3],
Cf,,,,{8},27,{4}1-5[8:1]/8-4[8:1],,27,
{16}46,,,35,,,24,,24,,,35,,,46,,46,,,35,,,24,,{4}1/5h[4:1],3,
{16}35,,,46,,,57,,57,,,46,,,35,,35,,,46,,,57,,{4}4h[4:1]/8,6,
{16}38,,,27,,,16,,16,,,27,,,38,,38,,,27,,,16,,{4}1/6h[4:1],5>1[4:1],
,4<8[4:1],,4,7h[4:1],5h[4:1],4h[4:1],2,
27,27,36,36,45,4z8[4:1]/5s1[4:1],,,
7-5[8:1]/8-4[8:1],7x/8x,1-5[8:1]/2-4[8:1],1x/2x,
1-4[8:1]/8-5[8:1],1x/8x,2b/7b,{8},6,
6,8,8,1,1,3,{4}3-7[8:1],6-2[8:1],1-5[8:1],8b,3b/7b,
1-5[8:1]/2-4[8:1],1x/2x,7-5[8:1]/8-4[8:1],7x/8x,
1-4[8:1]/8-5[8:1],1x/8x,2b/7b,45,
3h[4:1],1h[4:1],8h[4:1],6h[4:1],4,{8}3x/7x<3[4:1],3x/7x,{4}3x/7x,1b,
25,8-4[8:1],{8}3,3,{4}2q6[8:1]/5,7,{8},8,8,4,4,,
26,,1,{4}1h[4:1],5-1[8:1],{8}3,{4}3-7[8:1],6h[4:1],{8}5,5,47,,
{4}1-5[8:1]/2-4[8:1],1x/2x,7-5[8:1]/8-4[8:1],7x/8x,
1-4[8:1]/8-5[8:1],1x/8x,2/7h[4:1],3,
1>5[4:1],5<1[4:1],1,5,3h[4:1]/7h[4:1],{8},26,2h[4:1]/6h[4:1],,,37,
,1,2-6[8:1]/8-4[8:1],,2x/8x,,37,,
{4}6^3[8:1],1,2^7[8:1],5,6^3[8:1],1-5[8:1],8,7h[4:1],
5,46,3,25,{8}6,6,5,7,3,3,4,2h[4:1],
,8,8,5,5,6,6,47,,1,1,4,4,3,3,24,
{4}24,45,57,18,{8}24,3,57,6,{4}2-6[8:1]/4,8b,
78,56,12,34,78,56,4h[4:7]/7,,B7/B8,B5/B6,B1/B2,B3/B4,B7/B8,B5/B6,E5/E7,,
34,12,56,78,34,12,38,{8},7,7,4,4,5,5,1,1,,{2}B4/B5/Chf[2:1],E1,
{4}1-4[8:1]/8-5[8:1],1x/8x,2-4[8:1]/8-4[8:1],2x/8x,
1-5[8:1]/7-5[8:1],1x/7x,2b/8b,{8},3,
3,1,1,8,8,6,{4}6-2[8:1],3-7[8:1],5-8[8:1],4b,2b/6b,
7-4[8:1]/8-3[8:1],7x/8x,1-6[8:1]/2-5[8:1],1x/2x,
1-4[8:1]/8-5[8:1],1x/8x,2b/7b,45,
{8}6,6h[8:1],8,8h[8:1],1,1h[8:1],3,3h[8:1],
5,,2x>6[4:1]/6x,2x/6x,2x/6x,,8b,,
{4}47,1-5[8:1],{8}6,6,{2}4-1[8:1]/7p3[8:1],{8},1,1,5,5,4,
4h[4:1],,5,{4}4-1[8:1]/5-8[8:1],4x/5x,{8}27,
{4}2-5[8:1]/7-4[8:1],2x/7x,{8}36,27,27,,
{4}1-6[8:1]/2-5[8:1],1x/2x,7-4[8:1]/8-3[8:1],7x/8x,
1-4[8:1]/8-5[8:1],1x/8x,2h[4:1]/7,8,
{8}5,5,3,3,{4}4-1[8:1]/5-8[8:1],4x/5x,27,{8},6,57,,,18,
,2-6[8:1]/4,,8,8h[4:1],,5,5,,27,1-5[8:1]/8-4[8:1],,1b/8b,,,,
{4}3^6[8:1],8,7^2[8:1],4,3-6[8:1],8,7h[4:1],5h[4:1],
6^3[8:1],1,2^7[8:1],5,6-3[8:1],1,2h[4:1],4h[4:1],
3^6[8:1],8,7^2[8:1],4,3-6[8:1],8,7h[4:1],5,
6-3[8:1],1,2-7[8:1],5,6,37,{8}1,27,27,2h[4:1]/7h[4:1],,,
{1}B1/B3/B5/B7/C,,,
E
Re:MASTER
(178)
{4}56,47,,,34,25,,,45,2h[2:1]/7h[2:1],,,
{8}1b/2b,1b/2b,7b/8b,7b/8b,4h[4:1]/5h[4:1],,{48},3x/6x,2x/7x,
{4}1x-5[8:1]/8xs4[8:1],{24}1b/8b,E1/E5/Cf,,{16},{4},,,
2h[4:1],4h[4:1],5h[4:1],7h[4:1],
3,3x/7-4[16:1],3,3/4x-6[16:1],3,3/6x-8[16:1],3,2x/8x,
45,1x-5[16:1]/7,7,5x-3[16:1]/7,7,3x-1[16:1]/7,7,1x/7x,
2/8-4[16:1],1x-3[16:1],8-6[16:1],1x-5[16:1],8,2x/7x,{8}18,18,2b/7b,,
4,,4,6,4,5,4,6,{4}4>8[4:1],8<4[4:1],4,{8},7,
7,,6,3,6,4,{4}6s2[4:3],5,4,{8}3,1b,1b,,
3,,3,6,3,5,3,4,{4}3v5[8:1],4-8[8:1],,17,
{8}3,4,5,6,{2}4h[2:1],Cf,{8},7b/8b,7b/8b,2-5[8:1],
1,2,7p4[4:1],8,7,,,2-5[8:1],1,2,7p4[4:1],8,7,,,2,
2q7[8:1],,6,6q3[8:1],,4,{4}4<8[4:1],8>4[4:1],4<4[2:1],4h[8:3],,
{8},7,7,3,3,6,45,6,{4}67,18,23,45,{1}6q3[2:1]*<3[2:1],
{8},5,4,5,B2,,B4,,
{16}6h[16:3],,,5h[16:3],,,B7,,5h[16:3],,,6h[16:3],,,E8,,
6h[16:3],,,5h[16:3],,,B7,,{2}B6/E6/E8,
{16}3h[16:3],,,4h[16:3],,,B2,,4h[16:3],,,3h[16:3],,,E2,,
3h[16:3],,,4h[16:3],,,B2,,{2}B3/E2/E4,
{16}6h[16:3],,,5h[16:3],,,B7/E7,,5h[16:3],,,6h[16:3],,,B8/E8,,
6h[16:3],,,5h[16:3],,,B7/E7,,{8}E1/E5/C,,,2,
{16}2h[16:3],,,4h[16:3],,,B1/B2,,5h[16:3],,,3h[16:3],,,B5/B6,,
{4}1-7[4:1],7-5[4:1],5-3[4:1],3-1[4:1],5,5,45,36,27,18,
{32}1x,2x,3x,4x,5x,6x,7x,8x,1x,2x,3x,4x,5x,6x,7x,8x,
{4}1x-5[8:1],1b/6h[4:1],8-4[8:1],3h[4:1]/8b,1w5[8:1],1b,3b/7b,{8}6x,1,
8-5[8:1],2,8,3,8-3[8:1],4,8,5,{4}8-5[8:1],4-1[8:1]*-7[8:1],4,2b/8b,
7-3[8:1],4h[4:1]/7,2-6[8:1],2/8h[4:1],7-3[8:1],4p5[4:1]*>5[4:1]/7,,,
{8}35,4,35,6,17,2,38,7,26,,B7/B8,B3/B4,Cf,,,,
{4}1-4[8:1]*-6[8:1],1,{8}5-2[8:1]*-8[8:1],5,,,1/7h[4:1],,6,6h[4:1],5,5h[4:1],4,4,
1/7-4[8:1],,17,8-3[8:1],,8-5[8:1],,8,1>7[4:1],,Cf,,8,8,2b/7b,,
{4}8x-4[8:1],3h[4:1]/8b,1-5[8:1],1b/6h[4:1],7-3[8:1],1w5[8:1]/7b,1b,3b/7b,
{8}24,35,46,57,48,37,26,15,3b/7b,,,26,1b/5b,,,
7h[4:1],,{16}8x-4[8:1],1x,{8}2x-6[8:1],8b,2b,,,,
{4}1^4[8:1],B2/B3,8^5[8:1],B6/B7,1^4[8:1],B2/B3,6h[2:1],{16}5,4,3,2,
{4}1h[2:1],B4/B5,3h[2:1],B1/B8,{8}5,6,7,8,15,26,37,48,
,7^2[8:1],4,7,5-3[8:1],5-7[8:1],,,,1^6[8:1],5,1,4-6[8:1],4-2[8:1],,,
{4}8<4[4:1],4>8[4:1],8,4,{8}37,4,38,4,1/3h[2:1],,{16}2x,1x,8x,7x,
{4}6hx[4:7],B3,E5,B3,E5,B3,E5,B3,B7/E5/E8,B3,B8/E1/E5,B3,B7/E5/E8,B3,B8/E1/E5,,
3hx[4:7],B6,E5,B6,E5,B6,E5,B6,27,{16}4,5,4,5,4,5,4,5,4-1[8:1],,,,{1},
{4}7b/8b-4[16:1],{24}2h[4:1]/8b,Cf,,,,,{4}1b-5[16:1],{24}1b/7h[4:1],Cf,,,,,
{4}8bw4[16:1],{24}8b,Cf,,,,,{4}1b/7b,26,
1-5[8:1]/7-5[8:1],,{8}2b-8[8:1],2bpp4[8:1],{4},7-2[8:1],1q4[4:1],Cf,,
2-6[8:1],2/5h[4:1],7-3[8:1],1h[4:1]/7,2-6[8:1],2/5q4[4:1]*<4[4:1],,,
{8}17,8,17,2,35,6,47,3,26,,B7/B8/Cf/E8,B3/B4/Cf/E4,B1/B2/B5/B6/E2/E6/Cf,,,,
{4}8-3[8:1]*-5[8:1],8,{8}4-1[8:1]*-7[8:1],4,,,2h[4:1]/8,,3,3h[4:1],4,4h[4:1],5,5,
2-5[8:1]/8,,28,1-6[8:1],,1-4[8:1],,1,{4}8<2[4:1],Cf,{8}1,1,2b/7b,,
{4}1b-5[16:1],{24}1b/7h[4:1],Cf,,,,,{4}8b-4[16:1],{24}2h[4:1]/8b,Cf,,,,,
{4}1b-5[16:1],{24}1b/8bw4[16:1],Cf,,,,,8b,Cf,,,,,{4}1b/7b,
{8}78,16,25,34,12,38,47,56,3b/7b,,,48,2b/6b,,,
2-5[8:1]/7-3[8:1],,2,,4h[4:1],{16}2,1,8,7,6,5,
{4}4hx[1280:319]/8h[1280:319],{16}1x-5[8:1]/5,2x/6x,{8}3x-7[8:1]/7x,1b,{24}3b,Cf,,{8},,,
{4}37,1x-5[8:1]/7,17,5x-3[8:1]/7,57,3x-1[8:1]/7,37,1x/7,
35,4/7x-3[8:1],47,3x-1[8:1]/4,34,1x-7[8:1]/4,14,{16}4x/7x,,6,5,
{4}6,2x-6[8:1]/5,25,5/6x-8[8:1],56,5/8x-2[8:1],58,3x/6x,
4/5-1[8:1],4x-2[8:1]/5,4/5-7[8:1],4x-8[8:1]/5,4/5-1[8:1],4x/5,
{8}3b/7b,3b/7b,3b/7b,3b/7b,,,
{1}C,,,,
E
最終更新:2023年03月11日 22:15