BASIC
(200)
{0.5}1,1,8,8,
{1}1,1,2,2,3,3,4,45,5,5,6,6,7,7,8,8,1b/8b,,
{0.5}7h[1:1]/8h[1:1],5h[1:1]/6h[1:1],3h[1:1]/4h[1:1],1h[1:1]/2h[1:1],
{2}8,8,78,,1,1,12,,3,3,34,,5,5,45,,
{1}B4,B5,B3,B6,B2,B7,Ch[1:1],,
{4}8x,8,8,,7,,,,6,6,6,,45,,,,4,4,4,,3,,,,2,2,2,,18,,,,
1,1,1,,2,,,,3,3,3,,45,,,,5,5,5,,6,,,,7,7,7,,18,,,,
8,,8,,7,7,7,,6,,6,,5,5,45,,4,,4,,3,3,3,,2,,2,,1,1,18,,
1,,1,,2,2,2,,3,,3,,4,4,45,,5,,5,,6,6,6,,7,,7,,8,8,8,,
{2}7,7,78,78,6,6,56,,3,3,34,34,2,2,12,,
{1}1h[2:1]/2h[2:1],12,3h[2:1]/4h[2:1],34,
5h[2:1]/6h[2:1],56,7h[2:1]/8h[2:1],7x/8x,
{1}1-5[4:3],,8,1,8-4[4:3],,1,2x/8x,,,,,,
E
ADVANCED
(200)
{4}3,3,4,,6,6,5,,3,3,4,,5,5,46,,
7,7,8,,2,2,1,,7,7,8,,18,18,2x/7x,,
{2}3h[2:1],4,6h[2:1],5,3h[2:1],4,5h[4:1]/6h[4:1],56,
7h[2:1],8,2h[2:1],1,7h[2:1],8,1h[4:1]/8h[4:1],27,
{4}6,6,56,,3,3,34,,6,6,56,,4,4,35,,
2,2,12,,7,7,78,,18,18,18,,2h[2:1]/7h[2:1],,,,
{2}Cf,,1x,8x,
{4}E2,B2,B3,,E8,B7,B6,,E4,B3,B2,,E6,B6,B7,,
E2,E1,E8,,E6,E5,E4,,B7,B8,B1,B2,Cf,,,,
{2}7hx[2:1],8h[2:1],1h[2:1],2,3h[2:1],4h[2:1],5h[2:1],6,
78,56,34,12,34,56,{4}45,45,3x/6x,,
{0.5}7z3[4:5],2s6[4:5],7z3[4:5],{2}2,12,1h[2:1]/8h[2:1],,
{4}7b,7,78,78,2,2,12,12,3,3,4,4,5,5,46,,
{2}7h[4:1]/8h[4:1],78,1h[4:1]/2h[4:1],12,{4}8,8,1,1,18,18,2x/7x,,
3b,3,34,34,6,6,56,56,7,7,8,8,1,1,28,,
34,34,25,,56,56,47,,{1}7^4[2:1],3^8[2:1],
{4}7b,7,78,16,2,2,12,38,4,3,34,25,6,6,56,47,
3,3,2,2,1,1,8,8,7,7,6,6,5,5,4x/6x,,
3b,3,34,25,6,6,56,47,8,7,78,16,2,2,12,38,
7,7,6,6,5,5,4h[4:1]/6h[4:1],,4-1[2:1]/6-1[2:1],,,,,,1x/8x,1x/8x,
{1}2/7-3[2:1],2-5[2:1],6-1[2:1],{2}2,18,
{1}2-6[2:1],7-4[2:1],3-8[2:1],{4}7,7,78,,
{2}1h[4:1]/2h[4:1],12,7h[4:1]/8h[4:1],78,
1h[4:1]/2h[4:1],12,{4}18,18,27,,
{2}3h[4:1]/4h[4:1],34,5h[4:1]/6h[4:1],56,
3h[4:1]/4h[4:1],34,5h[4:1]/6h[4:1],47,
{4}3,3,34,,6,6,56,,3,3,4,4,5,5,46,,
7,7,78,,2,2,12,,8,8,1,1,
{1}2h[1:1]/7h[1:1],,,,
E
EXPERT
(200)
{8}3,{4}3,34,6,56,7s3[2:1],,,,{8}2,2,{4}1,38,7,16,2^5[4:1],,
{8},6,{4}6,56,3,34,2z6[2:1],,,,{8}7,7,{4}8,16,25,34,{8}5,5,4,4,,
2b/6b,,5,4,7h[4:1],,5,6,3h[4:1],,5,4,7h[4:1],,6h[4:1],,
5h[4:1],,3,4,2h[4:1],,4,3,{4}5-8[4:1],,2h[4:1],3h[4:1],
{8}4h[4:1],,6,5,7h[4:1],,5,6,3h[4:1],,5,4,7h[4:1],,6h[4:1],,
5h[4:1],,3,4,2h[4:1],,4,3,{4}5-7[8:1],4,1-3[8:1],8b,
{8}6h[4:1],,4,5,2h[4:1],,4,3,6h[4:1],,4,5,2h[4:1],,3h[4:1],,
4h[4:1],,6,5,7h[4:1],,5,6,{4}4-1[4:1],,7h[4:1],{8}5,5,
6h[4:1],,4,4,5h[4:1],,3,3,4h[4:1],,2,2,5-8[4:1],,,,
2h[4:1],,4,4,3h[4:1],,5,5,{2}4-2[8:1]*-6[8:1],8-2[8:1]*-6[8:1],
{1}Cf,{8},,,5,5,,37,,
{4}1-5[4:1],8,7h[8:1],6h[8:1],5h[8:1],4h[8:1],3h[8:1],24,
5/7^2[4:1],4,3,12,78,56,{8}3,3,4,,
{4}2h[8:1],3h[8:1],4h[8:1],5h[8:1],6h[8:1],7h[8:1],{8}8x,1x,2x/7x,,
{4}B2/B3/E4,B6/B7/E8,B1/B8/E2,B4/B5/E6,C,18,{8}2x/7x,2x/7x,2x/7x,,
{4}4h[4:1],5,7h[4:1],8,2h[4:1],1,{8}3,4,5,36,,
{8}1h[4:1]/8h[4:1],,,2h[4:1]/7h[4:1],,,3h[4:1]/6h[4:1],,,45,,2x/7x,2x/7x,2b/7b,,
{4}4h[4:1]/5,5,3h[4:1]/5,5,2h[4:1]/5,5,1-3[8:1]/5-7[8:1],,
4/8h[4:1],4,4/7h[4:1],4,4/6h[4:1],4,4^1[4:1]/5^8[4:1],,,,
{8}E1,E8,,,E6,E5,,,E3,E2,,,E8,E7,,,E5,E4,,,E3,E2,,,B4/B5/E6,,B1/B8/E2,,
E5,E6,,,E8,E1,,,E3,E4,,,E6,E7,,,E1,E2,,,E4,E5,{4},B1/B8/E2/E8,4x/5x,3x/6x,2x/7x,
{2}1b^4[8:1]/8b^5[8:1],2h[8:3]/7h[8:3],{8}2x/7x,,45,45,,78,,12,
{2}1-5[8:1]/2-4[8:1],7-5[8:1]/8-4[8:1],{4}1b,1,1/5-8[8:1],1,
12,{8}3-8[8:1],3,,,7-4[8:1],7,,,1x^4[8:1]/5x^8[4:1],1x/5x[4:1],{2},
{8}4x/7x,,2x/5x,2x/5x,,1x/8x,1b/8b,,{4},B1/B8/E2/E8,E3/E7/C,B4/B5/E4/E6,
{8}1b/8b,,2,1,{2}3h[4:1]/8h[4:1],{8}1h[4:1]/6h[4:1],,,16,,25,,3/4-8[8:1],
34,,,1-5[8:1],1,,,4p5[8:3]/6<3[8:3],{4}46,,,4h[4:1],
2h[4:1],8h[4:1],6h[4:1],5<4[2:1],,,,{8}7,7h[8:5],
{4}5,4,3,{8}2,2h[8:5],{4}4,5,6,45,
6x/7x,5x/8x,6h[8:1]/7h[8:1],4h[8:1]/5h[8:1],2x/3x,1x/4x,2h[8:1]/3h[8:1],4h[8:1]/5h[8:1],
6-4[8:1],2,2-6[8:1],8,8-2[8:1],4,4-8[8:1],7,
7h[4:1],6h[4:1],5h[4:1],4h[4:1],3h[4:1],2h[4:1],1h[4:1],8h[4:1],{2}7pp2[1:1],,,{8}4,5,45,,
{4}2x/3x,1x/4x,2h[8:1]/3h[8:1],4h[8:1]/5h[8:1],6x/7x,5x/8x,6h[8:1]/7h[8:1],4h[8:1]/5h[8:1],
2x/3x,1x/4x,2h[8:1]/3h[8:1],4h[8:1]/5h[8:1],6^3[4:1],2,{8}1,1,8x,,
{4}3h[4:1],4h[4:1],5h[4:1],6h[4:1],7h[4:1],8h[4:1],1h[4:1],2qq7[1:1],{1},{8},,,4,4,5,5,,
3b/7b,,4,5,2h[4:1],,4,3,6h[4:1],,4,5,1h[4:1],,2h[4:1],,
3h[4:1],,5,4,7h[4:1],,5,6,{4}4^1[4:1],,8h[4:1],7h[4:1],
{8}6h[4:1],,4,5,2h[4:1],,4,3,6h[4:1],,4,5,1h[4:1],,2h[4:1],,
3h[4:1],,5,4,{4}6h[4:1],5pp3[2:1],,,1b,,
{8}3h[4:1],,5,4,7h[4:1],,5,6,3h[4:1],,5,4,8h[4:1],,7h[4:1],,
6h[4:1],,4,5,2h[4:1],,4,3,{4}5^8[4:1],,1h[4:1],{8}4,4,
2h[4:1],,5,5,3h[4:1],,6,6,4h[4:1],,7,7,5-1[8:1],,,,
7h[4:1],,5,5,6h[4:1],,4,4,{2}5-2[8:1]*-8[8:1],1^4[8:1]*^6[8:1],
{4}1b/5h[4:1],4h[4:1],3h[4:1],2h[4:1],1h[4:1],8h[4:1],{8}7,8,1x/6x,,
{4}2h[4:1],4,6h[4:1],4,3h[4:1],4,5h[4:1],4,
4h[4:1],5h[4:1],6h[4:1],7h[4:1],8h[4:1],1h[4:1],{8}2,1,3x/8x,,
{4}7h[4:1],6,2h[4:1],3^6[1:1],
{1}Ch[1:1],,,,
E
MASTER
(200)
{8}8,8h[4:1],,1,{16}E2,E3,E4,E5,E6,,,,
{8}7,6/8h[4:1],,6,5,4h[4:1]/6,,6,3,24,1-4[8:1]/5,5,6,6,7,7,
8-5[8:1],8,4-1[8:1],4,6,{4}6^3[8:1],2h[4:1],4h[4:1],5h[4:1],{8}8,8,,
2,1h[4:1]/3,,3,4,3/5h[4:1],,3,6,57,4/8-5[8:1],4,3,3,2,2,
1-4[8:1],1,5-8[8:1],5,3,{4}3^6[4:1],7h[4:1],4,{8}26,1-3[8:1]/7-5[8:1],,17,,
{4}4/6h[4:7],4,5,5,3,3,4,2v7[8:1],5,5/8v1[8:1],5,2-6[8:1]/5,5,5,4,4,
3h[4:7]/5,5,4,4,6,6,5,7v1[8:1],4,2v8[8:1]/4,4,4/7-3[8:1],4,4,{16}5-8[8:1],,4,4,5x,,,,
{8}3h[4:1]/6,,5,5,2h[4:1]/4,,5,5,4h[4:1]/6,,5,5,{4}3h[4:1]/6,7v2[8:1],4,1v8[8:1]/4,4,4/7-3[8:1],4,4,45,36,
{8}3/6h[4:1],,4,4,5/7h[4:1],,4,4,3/5h[4:1],,4,4,{4}4/6h[4:1],2v8[8:1]/5,5,5/7v1[8:1],5,2-6[8:1]/5,5,5/7-3[8:1],5,5<4[1:1],
{1}1b,{8},,,45,4-1[8:1]/5-8[8:1],,,,
{4}2q7[8:1],B4/E5,8q5[8:1],B2/E3,6^3[8:1],B4/B5,{8}1,2x/8x,2x/8x,,
{4}7p2[8:1],B5/E5,1p4[8:1],B7/E7,3^6[8:1],B4/B5,{8}8,1x/7x,1x/7x,,
{4}5q2[8:1],B7/E8,3q8[8:1],B5/E6,1q6[8:1],B3/E4,{8}7,6x/8x,1x/5x,,
{16}7x,6,5h[8:1],,2x,3,4h[8:1],,8x,7,6h[8:1],,1x,2,3h[8:1],,
{8}1>5[8:1]*<5[8:1],,,,46,3x/7x,3x/7x,,
{4}2h[4:1]/8,4pp3[2:1],{8}1,1,,8,,7,7,,8,1x/7x,2x/6x,,
{4}1/7h[4:1],5qq6[2:1],{8}8,8,,1,1,,1,28,37,B6/E6/E7,B4/E4,,
3^6[8:1],,8,8,7^2[8:1],,4,4,3^6[8:1],,8,8,57,4x,3x/5x,,
6^3[8:1],,1,1,2^7[8:1],,5,5,6^3[8:1],,1,1,24,5x,4x>5[1:6]/6x,,
7,,,,E6,B6,,,E4,B3,,,C,,,,B2,E2,,,B7,E8,,,E4,B3,,,C,,,,
E8,B8,,,E2,B1,,,E4,B4,,,C,,,,1,1-4[8:1],,,8,8-5[8:1],{4},4,2b/7b,4b/5b,1b/8b,
2-6[8:1]/6,{8}2-4[8:1]/7,7,8h[4:1],,5,46,3h[4:1]/7,,1,1^6[8:1],,1^4[8:1],,8,
8h[4:1],,6-2[8:1],6,7h[4:1],,4-8[8:1],4,{4}6h[4:1],3-6[8:1],7-2[8:1],3pp2[4:1],
7,{8}8,8,1h[4:1],,3^6[8:1],3,8,,2,2,B6/E6,B4/E4,B8/E8,,
2^7[8:1],,5,5^2[8:1],,8,{4}8^5[8:1],1,1,24,45,
{8}5/7-3[8:1],,2/7-5[8:1],2,1h[4:1],,4,35,2/6h[4:1],,5,7,4x/7x,3x/6x,2x/5x,1,
1h[4:1],,3-7[8:1],3,2h[4:1],,5-1[8:1],5x,{16}1,2,3,4,7,6,5,4,1,2,3,4,5-1[8:1],,,,
{4}5/8-4[8:1],3-6[8:1]/8,3/7^2[8:1],4-8[8:1]/7,46,7b,{8}B3/E4,B5/E6,B1/E2,,
7^2[8:1],,4,4^7[8:1],,1,1,2,2^7[8:1],,4,4,,5,4/6-2[8:1],,
{4}3-6[8:1]/6,3/7pp5[4:1],{8}4,4,{4}3-7[8:1],3/6-3[8:1],2qq4[4:1]/6,{8}5,5,{4}6,
57,18,24,45,{16}57,,,8,{4}1,2/4<8[4:1],8>4[4:1],4<8[4:1],8>4[4:1],4<8[4:1],
8>8[2:1],C,8>8[2:1],C,8>4[4:1]*p4[4:1],,{8},B4/B5/Cf,,,,18,,45,,36,,27,27,,
{4}6-3[8:1],2qq4[4:1]/6,{8}5,5,{4}6-2[8:1],3-6[8:1]/6,3/7pp5[4:1],{8}4,4,{4}3,
24,{8}18,1-5[8:1]/8-4[8:1],,18,,2x/6x,2x/6x,3,4x/7x,6,3/5p1[8:1]*-8[8:1],4,,,
{4}2x/7x,6h[4:1],8h[4:1],1h[4:1],3h[4:1],6-2[8:1],4-8[8:1],5-1[8:1],
3b,{8}4,4,,2-6[8:1]/6,,5,,37,,45,1-4[8:1]/8-5[8:1],,18,,
{4}3/7p3[8:1],2,2q6[8:1]/6,7,3/7p3[8:1],2,1h[4:1],4<8[4:1],
3,5>1[4:1],6,4<8[4:1],3,1,{8}4,4,35,,
{4}2/6-2[8:1],4,3-7[8:1]/7,5,2/6-2[8:1],4,37,46,
3h[4:1],1h[4:1],8h[4:1],6h[4:1],3-6[8:1],5-1[8:1],{8}4,4,38,,
2q6[8:1]/6,,8,8,3/7p3[8:1],,1,1,2q6[8:1]/6,,8,8,7x,7x,5x>1[4:1]/6x,,
{4}6,4<8[4:1],3,5>1[4:1],6,7h[4:1],{8}5,5,46,,
3-7[8:1]/7,,4,5,2/6-2[8:1],,5,4,3-7[8:1]/7,,4,5,8x,1x/7x,2x/6x,,
{4}3h[4:1],1h[4:1],8h[4:1],6h[4:1],4,3-6[8:1]/7-2[8:1],,15,
4/8-5[4:1],C/B7/E7,1-4[4:1],C/B2/E3,8-5[4:1],C/B7/E7,{8}1x,2x,3x/8hx[4:1],,
{4}1-4[4:1],C/B2/E3,8-5[4:1],C/B7/E7,1-4[4:1],C/B2/E3,8,8h[4:1],
1-4[4:1],C/B2/E3,8-5[4:1],C/B7/E7,1-4[4:1],C/B2/E3,{8}8x,7x,1hx[4:1]/6x,,
{4}8-5[4:1],C/B7/E7,{8}1,2,{4}3>6[1:1]/8,Ch[1:1],,,,
{1},,,
E
Re:MASTER
最終更新:2026年03月29日 15:41