| アーティスト |
SYNC.ART'S feat. 3L |
BASIC
(150)
{2},,,,,
{2}1h[4:5],,,,,8h[4:5],,,,,
{1}1,1,2,2,3,3,4,45,5,5,6,6,7,7,8,18,
{2}8b,8,8,,7,7,7,,6,6,6,,5,5,45,,
4,4,4,,3,3,3,,2,2,2,,1,1,18,,
{1}1-4[2:1],,8-5[2:1],,1-5[2:1],,8-4[2:1],,
{1}E4,E3,E2,E1,E8,E7,E6,Cf,
{2}1,1,12,,3,3,34,,5,5,56,,7,7,78,,
8,8,7,7,6,6,45,,4,4,3,3,2,2,18,,
1b,1,2,2,3,3,45,45,5,5,6,6,7,7,1x/8x,,
{4},8,8,7,,,6,6,5,,,4,4,3,,,2,2,1,,
,1,1,2,,,3,3,4,,,5,5,4,,,45,45,
{1}4h[8:3]/5h[8:3],,,,,
E
ADVANCED
(150)
{4}3h[4:3],,,4,5,6h[4:3],,,5,4,
3h[4:3],,,4,5,6h[4:3],,,5,4,
3,3,34,3h[4:1]/4h[4:1],,6,6,56,5h[4:1]/6h[4:1],,
3,3,34,3h[4:1]/4h[4:1],,6,6,45,3b/6b,,
{2}2h[2:1],1h[2:1],8h[2:1],7,{4}6,6,56,,3,3,34,,
2,2,12,,7,7,78,,2,2,12,,8,8,17,,
6,6,5,5,4,4,35,,2,2,1,1,8,8,18,,
7,7,8,8,1,1,28,,3,3,4,4,5,45,36,,
7b,7,78,78,2,2,12,12,3,3,4,4,5,5,46,,
3,3,34,34,6,6,56,56,7,8,1,2,1^4[2:1]/8^5[2:1],,,,
6b,6,56,56,3,3,34,34,2,2,1,1,8,8,17,,
2,2,12,12,7,7,78,78,6,5,4,3,4b^1[2:1]/5b^8[2:1],,,,
{1}Ch[1:3],,,,
{1}1xpp4[4:5]/8xqq5[4:5],,3x-6[2:1],7x-3[2:1],
{4}2^5[8:3],,,,6,6,56,,7^4[8:3],,,,3,3,34,,
3^8[8:3],,,,7,7,78,,6^1[8:3],,,,2,2,1b/8b,,
E7,B6,B5,,E3,B3,B4,,B6,B5,E6,,B2,B3,E4,,
E7,B7,B8,,E3,B2,B1,,B6,B7,E8,,B3,B2,E2,,
3b,34,3,34,6,56,6,56,7,7,8,8,1,1,28,,
7,78,7,78,2,12,2,12,3,4,5,6,4-1[2:1]/5-8[2:1],,,,
2b,12,2,12,7,78,7,78,6,6,5,5,4,4,35,,
6,56,6,56,3,34,3,34,2,1,8,7,1b-4[2:1]/8b-5[2:1],,,,
6x,6,56,5h[4:1]/6h[4:1],,3x,3,34,3h[4:1]/4h[4:1],,
2x,2,12,1h[4:1]/2h[4:1],,7x,7,18,2b/7b,,
6x,5,4,3h[4:1]/5h[4:1],,3x,4,5,4h[4:1]/6h[4:1],,
7x,8,1,2h[4:1]/8h[4:1],,1x,8,18,
{1}2h[8:3]/7h[8:3],,,,,
E
EXPERT
(150)
{8}4h[4:1],,,4h[4:1],,,4h[4:1],,,,
5h[4:1],,,5h[4:1],,,5h[4:1],,,,
4h[4:1],,,4h[4:1],,,4h[4:1],,,,
5h[4:1],,,5h[4:1],,,5h[4:1],,,,
6h[4:1],,,6h[4:1],,,5h[4:1]/6h[4:1],,,,
3h[3:1],,,3h[4:1],,,3h[4:1]/4h[4:1],,,,
6h[4:1],,,6h[4:1],,,5h[4:1]/7h[4:1],,,,
3h[4:1],,,3h[4:1],,,2h[4:1]/4h[4:1],,,,
{4}2,3,4,5h[2:1],3,4,5,6h[2:1],4,5,6,7h[2:1],5,6,7,8,
7h[2:1],8,6h[2:1],5,4h[2:1],3,2h[2:1],1,3h[2:1],4,5h[2:1],6,7,57,48,,
4h[2:1]/5,3,5h[2:1],6,3h[2:1],2,6h[2:1],7,
2h[2:1],3,7h[2:1],8,1h[4:1],2,38,,
1/8h[2:1],7,1h[2:1],2,7h[2:1],6,2h[2:1],3,
6h[2:1],7,3h[2:1],4,5h[4:1],6,47,,
8^5[4:1],1^4[4:1],,5,4^1[4:1],5^8[4:1],,1,
2^5[4:1],1^6[4:1],,5,56,56,37,,
2/4^7[4:1],3^8[4:1],,7,6^1[4:1],5^2[4:1],,1,
8^5[4:1],4^1[4:1],,5pp2[4:3],1b,,,,
1^4[4:1],8^5[4:1],,4,3^8[4:1],4^7[4:1],,8,
7^4[4:1],8^3[4:1],,4,34,34,26,,
3/8^5[4:1],4^1[4:1],,5,1^4[4:1],8^5[4:1],,4,
3^8[4:1],7^4[4:1],,8qq3[4:3],4b,,,,
{1}2h[1:3]/4h[1:1],,Ch[1:3],{8},,,,,,,1x,
{0.5}1hx[1:3],8hx[4:9],
{2}7h[4:3],6h[4:3],5h[4:1],5h[4:1]/6h[4:1],
4h[4:3]/5h[4:1],3h[4:3],2h[4:1],23,
1h[4:1]/2h[4:5],3h[4:1],1h[4:1],12,
7h[4:5]/8h[4:1],6h[4:1],8h[4:1],1b,
{4}4h[2:1]/5,B3,5h[2:1],B6,3h[2:1],B2,6h[2:1],B7,
2h[2:1],B3,7h[2:1],B8,2h[2:1],E1,C,,
1/8h[2:1],B7,1h[2:1],B2,7h[2:1],B6,2h[2:1],B3,
6h[2:1],B7,3h[2:1],B3,5h[4:1],B6,B2/B3/C,,
7^4[4:1],3^8[4:1],,4h[4:1],8^3[4:1],5^8[4:1],,3h[4:1],
1^6[4:1],5^2[4:1],,6,35,46,28,,
1^4[4:1]/7,6^1[4:1],,4h[4:1],1^6[4:1],5^2[4:1],,6h[4:1],
8^3[4:1],5^8[4:1],,3qq8[4:3],8b,,,,
8^5[4:1],3^8[4:1],,5h[4:1],8^3[4:1],4^7[4:1],,3h[4:1],
2^7[4:1],6^3[4:1],,6,26,26,48,,
1q5[4:1],6^1[4:1],,5h[4:1],1p5[4:1],4^1[4:1],,5h[4:1],
8^3[4:1],4q8[4:1],,3pp8[4:3],8b,,,,
{8}5h[4:1]/6h[4:1],,,6h[4:1]/8h[4:1],,,6h[4:1]/7h[4:1],,,,
1h[4:1]/2h[4:1],,,2h[4:1]/4h[4:1],,,2h[4:1]/3h[4:1],,,,
5h[4:1]/7h[4:1],,,6h[4:1]/7h[4:1],,,6h[4:1]/8h[4:1],,,,
1h[4:1]/3h[4:1],,,2h[4:1]/3h[4:1],,,2h[4:1]/4h[4:1],,,,
1h[4:1],,4h[8:1],3h[4:1],,1h[8:3],2h[4:1],,,,
8h[4:1],,5h[8:1],6h[4:1],,8h[8:3],7h[4:1],,,,
6h[4:1],,5h[8:1],8h[4:1],,7h[8:3],6h[4:1],,,,
1h[4:1],,3h[8:1],4h[4:1],,2h[8:1],
{16}3b,,,1b/8b,,,2b/6b,,
{1},,,,
E
MASTER
(150)
{8}7,6,5,4,3s7[4:1],2,,,,,2,3,4,5,6z2[4:1],7,,,,,
7,6,5,4,3pp1[4:1],2,,,,,2,3,4,5,6qq8[4:1],7,,,,,
3,2,1,8,7p5[4:1],6,,,,,6,7,8,1,2q4[4:1],3,,,,,
3,2,1,8,7pp3[4:1]*pp5[4:1],6,,,,,6,7,8,1,2qq4[4:1]*qq6[4:1],3,,,,,
{4}5-3[16:1],6,7-5[16:1],8,1-7[16:1],2,3-1[16:1],4,
{8}6,6-8[8:1],,5,4,3-1[8:1],,4,5,6-8[8:1],,5,4,3-1[8:1],,6,
7,8-6[8:1],,3,2,1-3[8:1],,6,7,8-6[8:1],,3,2,1-3[8:1],,4,
5,6-8[8:1],,5,4,3-1[8:1],,4,5,6-8[8:1],,5,4,3-1[8:1],,7,
{4}8^5[4:1],1,2^7[4:1],3,4^1[4:1],5,6^3[4:1],7,
8^5[4:1],1,2^7[4:1],3,4,5,46,,
1^4[4:1],8,7^2[4:1],6,5^8[4:1],4,3^6[4:1],2,
1^4[4:1],8,7^2[4:1],6,5,4,35,,
2^7[8:1]/6^3[8:1],,4^7[8:1]/8^3[8:1],,2^5[8:1]/6^1[8:1],2q6[8:1],,1<5[4:1],
5>1[4:1],1<5[4:1],5>1[4:1],1p5[4:1],5p1[4:1],1>5[4:1]*<5[4:1],,,
3-6[8:1]/7-2[8:1],,1-6[8:1]/5-2[8:1],,3-8[8:1]/7-4[8:1],7qq8[4:1],,,
1^4[8:1],1^6[8:1],1-5[8:1],1<2[2:1],Cf,,,,
2^4[16:1]/6^8[16:1],,4^2[16:1]/8^6[16:1],,2^4[16:1]/6^8[16:1],6p2[8:1],,8-4[8:1],
1-5[8:1],2-6[8:1],3-7[8:1],4-8[8:1],5-1[8:1],6-2[8:1],7,,
8p4[8:1],4,1q5[8:1],5,8p4[8:1],4,1-4[8:1],6,
7>3[4:1],3<7[4:1],7>3[4:1],3V14[2:1]*pp4[2:1],,,,,
{12}3,4,5,3^6[4:1],4^7[4:1],5^8[4:1],,,,,,,
3,4,5,3^6[4:1],4^7[4:1],5^8[4:1],,,,,,,
6,5,4,6^3[4:1],5^2[4:1],4^1[4:1],,,,,,,
6,5,4,6^3[4:1],5^2[4:1],4^1[4:1],,,,,,,
3,4,5,3^6[4:1],4^7[4:1],5^8[4:1],,,,,,,
3,4,5,3^6[4:1],4^7[4:1],5^8[4:1],,,,,,,
6,5,4,6^3[4:1],5^2[4:1],4^1[4:1],,,,,,,
6,5,4,6^3[4:1],5^2[4:1],4^1[4:1],,,,,,,
7,7,,8-4[4:1],8,,4,,,5-1[4:1],5,,1,,,2>6[4:1],2,,6,,,7-3[4:1],7,,
3,,,4-8[4:1],4,,8,,,1-5[4:1],1,,5,,,6<2[4:1],6,,2,,,3-7[4:1],3,,
7,,,8-4[4:1],8,,4,,,5-1[4:1],5,,1,,,2>6[4:1],2,,6,,,7-3[4:1],7,,
3,,,4-8[4:1],4,,8,,,1-5[4:1],1,,5,,,6<2[4:1],6,,{16}2b,,,4b,,,6b,,
{4}6-4[16:1],7,8-6[16:1],1,2-8[16:1],3,4-2[16:1],5,
6-4[16:1],7,8-6[16:1],1,2-8[16:1],3,4-2[16:1],5,
{8}6v4[8:1],6-8[8:1],,,3v5[8:1],3-1[8:1],,,
6v4[8:1],6-8[8:1],,,3v5[8:1],3-1[8:1],,,
7v4[8:1],7-5[8:1],,,2v5[8:1],2-4[8:1],,,7v4[8:1],7-5[8:1],,,1b,,,,
{4}8^5[8:1],8^3[8:1],4-8[8:1]/8,4^1[8:1]*^7[8:1],4qq1[4:1],4/8-5[8:1],8^3[8:1],8^5[8:1],
2-7[8:1]/8,2/6-3[8:1],2-5[8:1]/6,2/6-1[8:1],3^6[8:1]/6,3/8V24[16:3]*V64[16:3],8,,
1^4[8:1],1^6[8:1],1/5-1[8:1],5^2[8:1]*^8[8:1],5pp8[4:1],1-4[8:1]/5,1-5[8:1],1^4[8:1],
1/7-5[16:1],2-4[16:1]/7,2/8-4[8:1],1>8[2:1]/8,1/Cf,,,,
7v1[8:1],7-5[16:1],4qq2[8:1]/7,4-8[8:1],4/6qq6[4:1],1-7[8:1]/6,1-3[16:1],1-5[8:1],
1/7^2[8:1],7V53[8:1],1qq7[8:1]/7,1v3[8:1],1^6[8:1],1/5s1[4:1],5,,
2v8[8:1],2-4[16:1],2/5pp7[8:1],5-1[8:1],3pp3[4:1]/5,3/8-2[8:1],8-6[16:1],8-3[8:1],
4^1[8:1]/8,4V68[8:1],1-4[8:1]/4,1<2[2:1],1x/Cf,,,,
{8}7,6,5,4-8[8:1],3qq5[4:1],2,,,,,2,3,4,5-1[8:1],6pp4[4:1],7,,,,,
7,6,5,4-7[8:1],3pp8[4:1],2,,,,,2,3,4,5-2[8:1],6qq1[4:1],7,,,,,
3,2,1,8-5[8:1],7q2[4:1],6,,,,,6,7,8,1-4[8:1],2p7[4:1],3,,,,,
3,2,1,8-5[8:1],7q2[4:1],6,,,,,6,7,8,1,2<6[8:3],35,
{16}6b,,,4b,,,2b,,
{1},,,,
E
Re:MASTER
最終更新:2026年04月05日 18:00