| アーティスト |
COOL&CREATE feat.ビートまりおとまろん「東方ダンマクカグラ」 |
BASIC
(190)
{1},1x,,1x,,8,,8b,,
{1}1,1,2,2,3,3,4,4x/5x,
5,5,6,6,7,7,8,7x/8x,
{1}8-5[4:3],,{2}1x,1x,1b,,
{1}1-4[4:3],,{2}8x,8x,8b,,
{1}8-4[4:3],,{2}1,1,1b,,
{1}1-5[4:3],,{2}8,8,{1}8hx[1:1],,1x/8x,
{2}8,8,7,7,6,,56,,4,4,3,3,2,,1x/8x,,
1,1,2,2,3,3,45,,5,5,6,6,7,7,1x/8x,
{1}7h[1:1]/8h[1:1],,5h[1:1]/6h[1:1],,3h[1:1]/4h[1:1],,1h[1:1]/2h[1:1],,
{1}B1/B2,B3/B4,B5/B6,B7/B8,B5/B6/E6,B3/B4/E4,Ch[1:1],,1x/8x,
{2}8b,8,7,7,6,6,45,45,4,4,3,3,2,2,1x/8x,,
{4}1,,1,,2,2,2,,3,,3,,4,4,45,,5,,5,,6,6,{2}6,7,7,1b/8b,,
{2}8h[2:1],,8,7,6h[2:1],,6,56,4h[2:1],,4,3,2,1,{4}18,18,18,,
{1}1-4[4:3]/8-5[4:3],,,,
E
ADVANCED
(190)
{1},
{4}3,3,4,4,5,5,46,,7,7,8,8,1,1,18,,
2,2,1,1,8,8,17,,5x/6x,,3x/4x,,4x/5x,4x/5x,3b/6b,,
{2}7h[2:1],8,2h[2:1],1,7h[2:1],8,1h[4:1]/2h[4:1],12,
3h[2:1],4,6h[2:1],5,3h[2:1],4,4x/5x,3x/6x,
{4}7,7,78,,2,2,12,,7,7,78,,1,1,28,,
3,3,34,,6,6,56,,3,3,4,4,4x/5x,3x/6x,2x/7x,,
{2}6h[2:1],5h[2:1],4h[2:1],3x,B2,B1,B8,B7,
2hx[2:1],1h[2:1],8h[2:1],7x,B6,B5,B4,B3,
6hx[2:1],5h[2:1],4h[2:1],3x,B2,B1,B8,B7,
2hx[2:1],1h[2:1],8h[2:1],7x,B6,B5,B4,B3,
1hx[4:1]/2hx[4:1],7h[4:1]/8h[4:1],1-5[2:1],,
{4}6b,6,56,56,3,3,34,34,2,2,1,1,8,8,17,,
2,2,12,12,7,7,78,78,6,5,4,3,4x/5x,3x/6x,2x/7x,,
3b,3,34,34,6,6,56,56,7,7,8,8,1,1,28,,
7,7,78,78,2,2,12,12,3,4,5,6,4h[4:1]/5h[4:1],,36,27,
{1}1bpp4[4:5]/8bqq5[4:5],,6-1[4:1],{4}2,2,12,,
{1}3-8[4:1],7-3[4:1],2-6[4:1],{4}7,7,18,,
E3,B3,B4,,E7,B6,B5,,B2,B3,B4,B5,B6,B7,E8,,
B3,B2,E2,,B6,B7,E8,,B3,B4,B5,B6,{1}Cf,1hx[2:1]/8hx[2:1],
{4}2b,12,2,12,7,78,7,78,6,6,5,5,4,4,35,,
6,56,6,56,3,34,3,34,2,1,8,7,1x/8x,2x/7x,3x/6x,,
7b,7,87,78,2,12,2,12,3,3,4,4,5,5,46,,
3,34,3,34,6,56,6,56,7,8,1,2,1h[4:1]/8h[4:1],,27,36,
{0.5}4bqq1[4:5]/5bpp8[4:5],{4}7,7,78,,2,2,12,,
3,3,34,,6,6,56,,7x/8x,,1x/2x,,1x/8x,1x/8x,2x/7x,,
8h[4:5],,,,{8},1x,{16}1x,,,2x/7x,
{1},,,,
E
EXPERT
(190)
{4}4,4,4,2x/6x,
47,8,25,1,6h[4:1],8h[4:1],1h[4:1],3h[4:1],
4,25,56,47,2-6[4:1],,8x,8x,
25,1,47,8,3h[4:1],1h[4:1],8h[4:1],6,
{8}57,,,24,24,,,18,,4x/5x,4x/5x,,2b/7b,,,,
{4}8,7,6h[4:1],5,4,3,2h[4:1],1,1,2,3h[4:1],4,5,6,7h[4:1],8,
8,7,6h[4:1],5,4,3,2h[4:1],1,38,47,5/6h[4:1],{8}4,4,,37,,1,1,,2x/8x,,
{4}3x/7x,6h[4:1],5,3h[4:1],4,6-3[4:1],,1x,1x,3h[4:1],4,6h[4:1],5-1[4:1],,8-4[4:1],,
1x,24,75,8x,8x,17,35,2/6>7[4:3],,,,,45,27,18,36,
2h[4:1],1,7h[4:1],8,2h[4:1],1,38,4b/7b,
5h[8:1]/6h[8:1],5h[8:1]/6h[8:1],4h[8:1]/7h[8:1],3h[8:1]/8h[8:1],
1h[8:1]/2h[8:1],1-6[4:1]/2-5[4:1],,,
8b,37,2h[4:1],1,7h[4:1],8,16,2b/5b,
3h[8:1]/4h[8:1],3h[8:1]/4h[8:1],2h[8:1]/5h[8:1],1h[8:1]/6h[8:1],
7h[8:1]/8h[8:1],8^3[4:1]/7^4[4:1],,,
2h[4:1],1,7h[4:1],8,3h[4:1],4,25,4b/7b,
5h[8:1]/6h[8:1],5h[8:1]/6h[8:1],4h[8:1]/7h[8:1],3h[8:1]/8h[8:1],
1h[8:1]/2h[8:1],1-5[4:1]/2-6[4:1],,,
7h[4:1],8,2h[4:1],1,6h[4:1],5,47,2x/5x,
3h[8:1]/4h[8:1],3h[8:1]/4h[8:1],2h[8:1]/5h[8:1],1h[8:1]/6h[8:1],
7h[8:1]/8h[8:1],7^4[4:1]/8p3[4:1],,,
{8}1,1h[4:1],,8,{4}8,27,36,4-1[4:1]/5-8[4:1],,,
28,23,17,67,28,2^7[4:1]/3^6[4:1],,,
67,{8}4,4,{4}5,6-3[4:1],2,1^4[4:1]*^6[4:1],,,
17,67,28,23,17,6-2[4:1]/7-3[4:1],,,
23,45,67,{8}18,18,,36,{4}3-8[4:1]/6-1[4:1],,,
46,67,35,23,46,6^3[4:1]/7^2[4:1],,,
23,{8}8,8,{4}1,2^7[8:1],5pp5[2:1]*qq5[2:1],,,,
35,23,46,67,35,2V46[4:1]*V86[4:1]/3,,,
67,18,23,45,36,,27,45,
1b,{8}7,7,{4}5,48,{8}3,3,5,5,{4}4,36,
45,27,{16}1,8,1,8,{4}1,24,45,5/7-3[4:1],,
1h[8:3],{8},7,{16}7h[16:3],,,6h[16:3],,,5,,
4h[16:3],,,3h[16:3],,,2,,2h[16:3],,,3h[16:3],,,4,,
{8}5,5,3,3,6,6,4,4,{4}35,46,25,4/7h[4:1],
3-6[4:1],,{8}8,8,{4}8,57,24,{8}1,1,27,,
{4}4h[8:1]/7h[8:1],3h[8:1]/5h[8:1],2h[8:1]/6h[8:1],1h[8:1]/8h[8:1],
2h[8:1]/5h[8:1],4h[8:1]/6h[8:1],3h[8:1]/7h[8:1],1b/8b,
{4}2x,3^6[4:1]/7^2[4:1],,,8x,2^7[4:1]/6^3[4:1],,,
1x,35,8x,46,Ch[2:1],,,,18,,46,2b/8b,
17,{8}67,8,{4}28,23,17,6^3[4:1]/7^2[4:1],,,
23,{8}5,5,{4}4,3-6[4:1],7,8^3[4:1]*^5[4:1],,,
28,{8}23,1,{4}17,67,28,2-7[4:1]/3-6[4:1],,,
{8}6x/7x,6x/7x,5x/8x,,2x/3x,2x/3x,1x/4x,1x/4x,,5x/8x,{4}5x-1[4:1]/8x-4[4:1],,,
2-8[8:1]/3-5[8:1],,5x/8x,67,35,2^7[4:1]/3^6[4:1],,,
67,{8}1,1,{4}8,7^2[8:1],4pp4[2:1]*qq4[2:1],,,,
46,{8}67,8,{4}18,23,46,6^3[4:1]/7^2[4:1],,,
{8}2x/3x,2x/3x,1x/4x,,6x/7x,6x/7x,5x/8x,,{4}1x/4x,2x/3x,4x/5x,6x>7[2:3]/7x,
{0.5}Cf,{8}7,7,5,,2,2,{4}4,56,47,34,1b,
6h[2:1],5,3h[2:1],4,7h[2:1],8,2h[2:1],1,
{8}7,,,56,47,,,43,,18,18,,45,,3b/6b,,
{4}B1/B2,B7/B8,B3/B4,B5/B6,{16},,1x/8x,,8x,1x,,2x/7x,
{1},,,,
E
MASTER
(190)
{16}4,,,,4,,,5,{8}4,18,2b/7b,,
7-5[8:1],7x,8-4[8:1],8x,7-5[8:1],7x,8,1x,2-4[8:1],2x,1-5[8:1],1x,2-6[8:1],2,8b,,
7b,6b/8,7,16,7,26,7,36,5,4,36,27,27,{16}1x,8x,1b-5[8:1],,,,
{8}7b,,6,6,35,2,18,7,{2}2-5[8:1]/6-1[8:1],{8}8,4,37,26,
1b/5b,,,56,4b/7hx[8:3],,,1b,,{16}8,1,{8}8,27,{4}2-5[8:1]/7-4[8:1],2b/7b,
3x/6x,36,45,{8}6,5,{4}7^2[4:1],2^7[4:1],4,{8}5,5,
6h[4:1],,5,5,7h[4:1],,8,8,{4}6^3[4:1],3^6[4:1],1,{8}8,8,
{4}7h[4:1],5h[4:1],4h[4:1],{8}3,3,{4}4q1[4:1],1p4[4:1],2,3,
2^5[4:1]/5,6,6,{8}56,56,,4x/7x,,2x/5x,1x,1x,2x/8x,2x/8x,
{4}3b/7b,46,35,{8}6,5,{4}7>3[4:1],3>7[4:1],4,{8}5,5,
6h[4:1],,5,5,7h[4:1],,8,8,6>2[4:1],,2,,1,1,8,8,
{4}7h[4:1],5h[4:1],6,{8}3,3,{4}24,18,{16}2x/4x,,,4x/5x,,,5x/7x,,
{4}5x/7x-3[8:1],7x/8x,2x-6[8:1]/4x,1x/2x,{8}5x/7x,5x/7x,4x,3x,2x/4x,2x/4x,1x/8x,1x/8x,
{4}2hx[2:3]/7x,,4,5,4,6,4,2x/8x,
{24}1b,2x,3x,4x,,,7b,6x,5x,4x,,,2b,3x,4x,5x,,,8b,7x,6x,5x,,,1b,2x,3x,4x,,,7b,6x,5x,4x,,,{4}1b/2b,,
3/7h[2:3],5,3,{8}6,6,{4}6,3,5,1x/7x,
{24}8b,7x,6x,5x,,,2b,3x,4x,5x,,,7b,6x,5x,4x,,,1b,2x,3x,4x,,,8b,7x,6x,5x,,,2b,3x,4x,5x,,,{4}B2/B3/B7/B8/Cf,,
1^4[4:1],5,8^5[4:1],{8}3,3,{4}3,24,5,3x/7x,
{24}1b,2x,3x,4x,,,7b,6x,5x,4x,,,2b,3x,4x,5x,,,8b,7x,6x,5x,,,1b,2x,3x,4x,,,7b,6x,5x,4x,,,{4}1b/2b,,
{4}3x/5x^8[4:1],1,4^1[4:1],{8}7,7,{4}7,68,4-8[8:1]/5-1[8:1],,
{8}2x/7x,,34,1x/5x,,56,4x/8x,,3b/7b,{16}2,1,2,,7,8,7,,1x/8x,2x/7x,3x/6x,,,,
{2}B2/B7/Cf,,8h[4:3],1h[4:1],
{8}2b/7b,3,2/4-7[8:1],4,1-5[8:1],1,8,7,4/6-1[8:1],6,2-5[8:1],2,6x,7x,4x/8x,,
35,2,5,46,7,8,1,2-5[8:1]/4,,8,7<1[4:1],4,3x,,,,
1x/7x,6,2-5[8:1],4,2-6[8:1],8,2,5,47,8-4[8:1],5,8x,2x,,1b/5b,,
2x/6x,1x/7x,2x-5[8:1]/6x-4[8:1],1x/7x,2x/6x,,3x/6x,1x/8x,,3x/7x,2x-5[8:1]/6x-1[8:1],3x/7x,{24}2x/6x,Cf,,{8},,,
38,,4/7-3[8:1],7,5-1[8:1],5,8,7,26,3,2-5[8:1]/4,2,1-6[8:1],1,4,,
45,6,7,18,2,3,4,5/6-1[8:1],,2,3>5[4:1],8,7x,,,,
2x/6x,5,3-8[8:1],1,3-7[8:1],3,3,4,15,6,7-3[8:1],8,{4}5b/7b,1x-5[8:1],
1/7x^4[8:1],3x^8[8:1]/7,3/5x-8[8:1],1xw5[8:1]/5,{24}1b,Cf,,,,,{4},{16}2x,8x,2x,8x,2b,,,,
{8}3x/7x,,26,,3,3,5,6,{16}7,8,7,,2,1,{8}2,7,7,5,6,
{16}2,4,2,,7,5,{8}7,8,1,2,3,4x/6x,7b,3x/5x,2b,3x/6x,{16}8b,1b,8b,,,,
{8}3x/6x,,,7,{16}7h[16:3],,,6h[16:3],,,5,,4h[16:3],,,3h[16:3],,,2,,6h[16:3],,,7h[16:3],,,8,,
{8}68,5,4,3,12,3,4^1[8:1],5,{4}4b^7[8:1],4b-8[8:1],4b,1b/7b,
2-6[8:1],25,{8}4^1[8:1]/8^5[8:1],48,48,,4x/8x,26,{4}4p8[8:1]/8p4[8:1],48,1xq5[8:1]/5x,
6h[4:1],{16}8b,7b,{8}8b,16,2,{4}3x/8x,5/6p3[2:1],Cf,{8},1x,1x,,
{4}2x/8^5[4:1],5^2[4:1],2^7[4:1],7,5p8[4:1],8p3[4:1],3p6[4:1],6<5[1:1],
{1}Cf,1b,{16}1x,8x,1x,8x,1x,8x,1x,8x,{4}2x/7x,4x/5x,
{8}2b-6[8:1]/6b,35,26,7,8-4[8:1],57,48,3,12,38,4/7>5[4:1],56,4/7x,,,,
18,{16}2,4,3,,6,5,{8}7,18,27,36,45,{16}6,5,7,4,8,3,1,2,1,,4b/7b,,,,
{8}2-5[8:1]/6,35,26,8,3/7-4[8:1],46,37,1,2-6[8:1],1-5[8:1],2>8[4:1],1,2b,,,,
3x/7x,4x/6x,2x-5[8:1]/8x-5[8:1],3x/7x,2x/8x,,4x/6x,2x/8x,,1x/5x,3x-6[8:1]/7x-2[8:1],1x/5x,{4}3x/7x,4x/8xw4[8:1],
,2b/6b,{8}3/7-3[8:1],46,37,2,1-5[8:1]/5,24,1>7[4:1]/5,7,1x/6,,,,
26,{16}7,8,6,,3,4,{8}2,18,27,36,45,{16}3,4,2,5,1,6,8,7,8,,2b/5b,,,,
{8}3x/7-3[8:1],46,3/7^2[8:1],2,7^4[8:1],5,7,1,2-6[8:1]/6,35,2<4[4:1]/6,7,2x/8,,,,
8x-4[8:1],1x-5[8:1],8x-6[8:1],1x-3[8:1],8x-4[8:1],1x-5[8:1],8x,1x,{4}7h[2:1],,5-1[8:1],5b/6b,
2b/7b,{8}6^1[8:1],6x,4p8[8:1],4x,5q1[8:1],5x,3^8[8:1],3x,6q2[8:1],6x,5-1[8:1],5x,7x,,
2b,1/3x,2,3x/8,2,3x/7,2,3x/6,45,{16}3,4,2,,6,5,7,,1x,8x,2x-5[8:1]/7x-4[8:1],,,,
{4}2b/7b,3x/6x,{8}24,3,45,6,{4}3^8[8:1]/7^4[8:1],3x/7x,{8}1x/5x,6,4b^1[8:1]/7b^4[8:1],,
4b/7b,,,34,1hx[8:3]/5b,,,8b,,{16}2x/7x,3x/6x,{8}4x/5x,4x/5x,{4}2x-6[8:1]/7x,2x/8b<1[4:3],
{1},{16},,2b/7b,,1b/8b,1b/8b,,{32}B1/B8/E2/E8,B2/B7/Cf,B3/B6,E4/E6,
{1},,,,
E
Re:MASTER
(190)
{16}3,,,,3,,,5,4,,3x/6x,2x/7x,1bx/8bx,,,,
3,,3,4,2,,5,,6,,6,5,7-1[8:1],,4,,{8}7-5[8:1],3,7,3,7,8,1b/2b,3,
4b/5b,6,6,5-7[8:1],4,2/5-3[8:1],,5/8h[8:2],{16},,2,2,1<5[8:2],,2,,1,,,,3b,,,,
6,,6,5,7,,4,,3,,3,4,2-8[8:1],,5,,{8}2-4[8:1],6,2,6,2,1,8b/6b,5,
2bh[8:2]/4bh[8:2],,,57,7bh[8:2]/5bh[8:2],,,18,{16},,27,36,54,,36,,36,,,,A8/D1/A1/E1,,,,
{8}5-7[8:1],,4,,3-1[8:1],,4,4,5<8[8:1],,3>8[8:1],,4-8[8:1],,,,
4-2[8:1],,5,,6-8[8:1],,5,5,4>1[8:1],,6<1[8:1],,5-1[8:1],,,,
7>2[8:2],,2>5[8:2],,5<8[8:2],,1,1h[8:2],,2,2h[8:2],,3<6[8:2],,6q3[8:2],,
3q7[4:1],,7>2[4:1],,2,,7,7,{16},,1b/8b,,,,2bx/7bx,2bx/7bx,2bx/7bx,,6b,,4b/5b,,3b,,
{8}2b/5b<7[8:1],,3<5[8:1],,8,,7,7h[8:5],,6,6q4[8:2],,,,8b,,
3b/7b,,8<5[8:2],,5v3[8:2],,2,2,,1,1h[8:4],,3-7[8:1],,,,
2b/6b,,1>3[8:1],,7>1[8:1],,4,3,2b/8b,1,1,,{16}25,,,47,,,56,,
{8}6b/5b-1[8:1],,,,3b/4b-8[8:1],,,,1b/3,3,2b/8,8,7b/1,1,8b/6,6,
{16}1b/5b,,2,4,3h[8:1],,5,4,6h[8:1],,8,7,1h[8:1],,4,2,
5h[8:1],,8,6,1h[8:1],,4,2,5h[8:1],,8,6,1b/5b,,,,
{24}6hx[8:1],,,1b,2,3,4/6hx[8:1],,,1b,2,3,4/7hx[8:1],,,1b,2,3,4/7hx[8:1],,,1b,2,3,
{8}4/8x-6[16:1],8x-2[16:1],8xz4[8:2],,,,,,
{16}A1/A7,,,,36,,4,5,3h[8:1],,1,2,8h[8:1],,5,7,
4h[8:1],,1,3,8h[8:1],,5,7,4h[8:1],,1,3,4b/8b,,,,
{32}A3/A7,D3`D7,A2`A6,D2`D6,,,,,A4/A8,E4`E8,B3`B7,B2`B6,,,,,
A2/A6,D2`D6,A1`A5,D1`D5,,,,,A3/A7,E3`E7,B2`B6,B1`B5,,,,,{4}2hx[4:1]/6hx[4:1],,
A1/A2/A3/A4/A5/A6/A7/A8/E1/E2/E3/E4/E5/E6/E7/E8/B1/B4/B5/B8/Cf,,
{8}2bx/7bx-1[8:1],7,3-5[8:1],3,7-3[8:1],7,2-8[8:1],2,6-4[8:1],6,2-6[8:1],2,7,7,1b/8b,,
4x/5x,{48}A5/A4,D6/D4,A6/A3,D7/D3,,,{8}4x/5x,{48}A5/A4,D6/D4,A6/A3,D7/D3,,,
{8}4x/5x,{48}A5/A4,D6/D4,A6/A3,D7/D3,,,{8}4x/5x,{48}A5/A4,D6/D4,A6/A3,D7/D3,,,
{8}4x/5x,4x/5x,3x/6x,2x/7x,{48}1x/8x,D2,A2,D3,A3,D4,A4,D5,A5,D6,A6,D7,A7,D8,,,,,{8},
7b/2b-8[8:1],2,6-4[8:1],6,2-6[8:1],2,7-1[8:1],7,3b-5[8:1],3,7-3[8:1],7,2,2,81,,
{16}1b/8b,,2,1,3,,2b/8b,,7,8,6,,1b/7b,,,,{32}1b/2b,3,4,5,6,7,8,1,2,3,4,5,6,7,8,1,{2}26,
{8}3,35,,6,46,,24,25,{8}2h[24:11]/6h[24:11],,,{24},,B2/B6,{2}Cf,
{8}18,7,6-8[8:1],8-4[8:1],6,,3,2,{16}15,,2,4,3v1[8:1],,7,,3,,{24}8x,7x,6x,{4}5bx,
{8}57,46,2,13,28,7,56,4/7pp2[8:3],,6,5,4,3h[8:2],{32}D2,A1,D1,A8,{8}D8f,,
{8}81,2,3-1[8:1],1-5[8:1],3,,6,7,{16}84,,7,5,6v8[8:1],,2,,6,,{24}1x,2x,3x,{4}4bx,
{8}37,28,3x-5[8:1]/7x-4[8:1],28,37,,36,1b/8b,,5b/7b,2b/4b,3b/6b,{4}4bx-1[8:1]/5bx-8[8:1],,
{8}2x/7x,6,7-1[8:1],1-5[8:1],7,,3,2,{16}15,,2,4,3v8[8:1],,6,,3,,{24}7x,6x,5x,{4}4bx,
{8}24,35,6,17,28,3,{4}4qq5[16:5]b/6pp5[16:5]b,,,{16}1,2,3,4,1,8,7,6,
{8}15,3,2-8[8:1],8-4[8:1],2,,6,7,{16}84,,7,5,6v1[8:1],,3,,6,,{24}2x,3x,4x,{4}5bx,
{8}8xv5[8:1],4xv1[8:1],8x-6[8:1],4x-2[8:1],8x,4x,8x,,
{4}3hb[8:3]/6hb[8:3],,{16}E3/B3f,E5/B5f,E1/B1f,E7/B7f,Cf,,,,
{1}2x>8qq5[8:12]/7x<1pp4[8:12],,
{16}7h[16:3],,,5,,,2h[16:3],,,4,,,5,,4,,3h[8:1],,1b,,2h[8:1],,8b,,1h[8:1],,7b,8b,7b,,,,
1h[8:2]/6h[8:2],,,,,,2,,2h[16:3],,,4h[16:3],,,3,,
6h[16:3],,,5h[16:3],,,7,,3h[16:3],,,4h[16:3],,,2,,
{8}1/Ch[8:8],1,8,8,7,7,8,8,1b-4[8:1],,1b-6[8:1],,1b,,2bx/8bx,,
3/5<2[16:5],,4h[8:3],,,,1,8,{16}7,5,6,4,5,3,4,2,5,3,6,4,7b,5,8,6,
{4}1h[8:2],{24}6x,5x,4x,{8}3x,,2,2,1/8h[8:4],,7,6,5-8[8:1],4-1[8:1],5b,4b,,
7<3[8:2],,3>7[8:2],,7<3[8:2],,3,,2x-6[8:1]b,2x,7x-3[8:1]b,7x,4x-8[8:1]b,4x,6x,6x,
{16}7bx,1,7,1,8,2,8,2,7,3,6,2,5,1,4,8,{4}3h[24:23],,7h[24:11],,
{24}8xb/4xb,1x/5x,2x/6x,3x/7x,4x/8x,5x/1x,
{4}6xp2[8:1]/2xp6[8:1],6bx<2[8:1]/2bx>6[8:1],2bx/6bx,
{16}4bx/8bx,,6,5,7-5-1[8:2],,3,,1-7[8:1],,,,4,,3,,
26,,3,4,2pp1[8:2],,1,,2,,{24}8x,7x,6x,{4}5bx,
{8}57,46,2,13,28,7,56,4/7pp2[8:3],,6,5,4,3h[8:2],{32}D2,A1,D1,A8,{8}D8f,,
{16}5bx/1bx,,3,4,2-4-8[8:2],,6,,8-2[8:1],,,,5,,6,,
73,,6,5,7qq8[8:2],,8,,7,,{24}1x,2x,3x,{4}4bx,
{8}26,17,3-8[8:1]/5-8[8:1],26,35,,17,3b/5b,
,2b/4b,5b/7b,2b/6b,8bxqq1[24:7]/4bxqq5[24:7],,A8/A4,,
{16},,,,2b/6b,,,,78,,6,,54,,3,,21,,8,1,7v5<1[8:2],,68,,7,,{32}8x,1x,2x,3x,{4}4bx,
{8}46,35,1,82,17,6,{4}5pp4[16:5]b/3qq4[16:5]b,,,{16}8,7,6,5,8,1,2,3,
4b/8b,,6,5,7-4[8:1],,3-8[8:1],,7,,3,,5,,6,,27,,4,5,3v1>5[8:2],,24,,3,,{32}4x,5x,6x,7x,{4}8bx,
{8}8x-6[16:1],1x-5[16:1],8x-4[16:1],1x-3[16:1],8x<1[8:2],1x,8x,,{4}E1f/B1/B8,,4-1[8:1],,
{32}5bhx[8:12]/1bx,2,3,4,,6,7,8,1,2,3,4,,6,7,8,1,2,3,4,,6,7,8,1,2,3,4,,6,7,8,
1,2,3,4,,6,7,8,1,2,3,4,,6,7,8,{4}1-5[8:1],1x-3[8:1]*-7[8:1],
{8}1x,,5,4<7[12:1],3,4/3>8[12:1],,34,{16},,7,7,8,,16,,34,,6b,5b,8b,,,,
3,,3,4,2,,5,,6,,6,5,{8}7-1[8:1],4,7-5[8:1],3,7,3,7,8,1b/3b,4,
7bh[8:2]/5bh[8:2],,,42,2bh[8:2]/4bh[8:2],,,8b/1b,
{16},,7bx/2bx,7bx/2bx,7bx/2bx,,5b/6b,,{4}3b/4b-1[8:1],5xv4>2v1[16:15]/4xv5<7v8[16:15],
{1},
{16},,2b/7b,,4b/5b-8[16:1]b,3b/6b,,5bx/4bhx[16:9],A8f,{4},,
{1},,,,E
- Re:MASTER譜面追加しました。間違いなどあったら修正お願いします。 -- NaTaKa (2025-01-03 21:45:16)
- Re:MASTERの花火エフェクトの追加、スライドの速さの微修正、採譜ミス等を修正しました。 -- けもがみ (2025-01-07 04:29:08)
最終更新:2026年03月25日 18:25