アットウィキロゴ

Raven Emperor

アーティスト Kobaryo

BPM BASIC ADVANCED EXPERT MASTER Re:MASTER
205 5 8 12 14 -

EXPERT MASTER Re:MASTER
譜面制作者 ロシェ@ペンギン 翠楼屋 -

BASIC


ADVANCED


EXPERT


MASTER

(205)
{1}Ch[1:3]/B2/B3/B5/B6,,,8h[1:1],
5^3[4:3],6^3[4:3],7<3[4:4],8p3[8:7],
{4}2x,2,2,2,24,25,26,{8}17,17,{4}17,26,25,24,4h[16:3]/2,2,3/4b-8[8:1],,
{8}1,1,7,7,2,2,6,6,{16}3,5,3,5,3,5,3,5,4,6,4,6,4,6,4,6,{1}Cf/7b,
{8}8,8-5[8:1],,5,4h[4:1],,5^8[1:1],,{1}Ch[1:2],,
{8}8,8,8,8,{16}7,1,7,1,7p4[4:2],1,7,1,{4}7,,2-5[8:1],2x,3b/7b,

{4}4-8[8:1]/5,8,{8}15,2,37,3,35,5,51,2,{4}3/7-3[8:1],1^6[8:1],5-8[8:1],3,
{8}1,1,8h[16:1],8h[16:1],1h[16:1]/7h[16:1],2h[16:1]/6h[16:1],
3h[16:1]/5h[16:1],3h[16:1]/5h[16:1],{4}1b/7b,
2x/6x,4/5-1[8:1],1,{8}48,7,26,6,46,4,48,7,{4}6/5-2[8:1],8^5[8:1],1^4[8:1],8,
{16}6,,6,,35,,2,1,2,,4,3,4,3,4,3,{8}5b-1[8:1],,
4x,,28,,46,,35,2,18,{16}7,5,7,,2,4,2,,1,,28,,3,,45,,6x,5x,7x,,{8}8,1-5[8:1],1,
7,7,8h[16:1],8h[16:1],1h[16:1]/7h[16:1],2h[16:1]/6h[16:1],
3h[16:1]/5h[16:1],3h[16:1]/5h[16:1],{8}1b/7b,,
5x/6x,,3/4-8[8:1],,1^6[8:1],,5,5,45,{16}3,4,3,,7,5,6,,
1x/5x,,1/5pp2[1:1],,,,{1}3b,{8}1hx[4:1],,,28,,46,2b/8b,,

4/6h[4:1],,5,4/7h[4:1],,6,4x/8x,,{16}7h[16:3],,,5h[16:3],,,6,,,,6x,5x,7x,,,,
{8}3h[4:1]/5,,4,2h[4:1]/5,,3,1x/5x,,{16}2h[16:3],,,4h[16:3],,,{8}3,E5/B5,B2/E3,
{4}Ch[4:7],1x,,1,,8,,8,,
{16}18,,2,1,2,,3,4,3,,6,5,6,,45,,{4}4hx[8:3]/5hx[8:3],,45,

1/8-6[8:1],8x^2[8:1]/5h[8:1],8x-6[8:1]/3h[8:1],
8x^2[8:1]/5h[8:1],8x-6[8:1]/3h[8:1],8x^2[8:1]/5h[8:1],8x/3h[8:1],
{8}3x/4,25,{4}1b^3[8:1]/6b-4[8:1],1x-5[8:1]/6^8[8:1],
1^3[8:1]/6x-4[8:1],1x-5[8:1]/6^8[8:1],1/6x,3b/7b,{8}4,4,35,26,

{4}1x-3[8:1]/7x,1b^7[8:1]/4h[8:1],1b-3[8:1]/6h[8:1],
1b^7[8:1]/4h[8:1],1b-3[8:1]/6h[8:1],1b^7[8:1]/4h[8:1],1b/6h[8:1],
{8}5/6x,56,8^5[8:1],,3b/8-4[8:1],3b,3b/8,,{4}2b^5[8:1]/5b^8[8:1],25,
{12}1hx[12:1]/2hx[12:1],,3h[12:1]/8h[12:1],,4h[12:1]/7h[12:1],,
5h[12:1]/6h[12:1],,3h[12:1]/4h[12:1],,1h[12:1]/2h[12:1],,{1}Cf/8b,,,,

{2}8<2[4:6],C,,C,1>7[4:6],C,,C,
{8}1x/8x,,1,,6,6^4[8:1],,4,3,3h[4:1],,4,4-7[8:1],,3,,
4h[4:1],,6^4[8:1],,3,3h[4:1],,4,2x-7[8:1]/5x,,6,6x-3[8:1],,2,2hx[4:1],,
4,,24,,3,3^5[8:1],,5,6,6h[4:1],,5,5-2[8:1],,6,,
5h[4:1],,3-6[8:1],,5,,7,7,{4}4hx[4:2]/7hx[4:3],,,Ch[1:2],
8,8,8,8,7,6,5,5b,6,7,78,76,65,5V73[4:1]/4,3b-1[8:1],,
{8}4,4,5,5,3,3,6,6,{16}4,5,4,5,4,5,4,5,3,6,3,6,2,7,2,7,
{4}1b-5[8:1],6hx[4:3],,,5,3,1w5[8:1],1b,

{8}3-8[8:1]/7^4[8:1],,3/7-3[8:1],,7/1-5[8:1],1,1^4[8:1],4,1,6,7,48,48,
{16}7,5,6,3,4,2,{8}8^3[8:1],,8/4-1[8:1],,45,6,7,1,2/4b,8,8,5b/7,4,4,35,35,
2^5[8:1]/6-1[8:1],,2-6[8:1]/6,,2/8-4[8:1],8,8^5[8:1],5,8,3,2,15,15,
{16}7,8,6,2,4,3,{8}5-2[8:1],,5/6^1[8:1],,61,,3b/4b,2hx[4:1]/5b,,
{16}3,4,5,,4,5,6,,56,,{8}3b/8b,,

7^4[8:1]/4-8[8:1],,7-3[8:1]/4,,2-6[8:1]/7,1,2/8-5[8:1],1,48,3,24,5,46,
{16}6,5,7-3[8:1],1,8,2,{8}7^2[8:1]*^4[8:1],,7,,37,,4-8[8:1]/5-1[8:1],36,4b/5b,,
27,3x/6x,,78,7x/8x,{16}78,16,
{8}2^5[8:1]/5-1[8:1],,2-6[8:1]/5,,2/7-3[8:1],8,7/1-4[8:1],8,1/5x,6x,5x/7,4,35,
{16}2,4,1-5[8:1],7,8,6,{8}1^4[8:1]*-6[8:1],,1w5[8:1],,1,,37,3b/7b,,
{16}2,1,2,,5,4,5,,7,8,6,1,5,2,{1}Cf,,,

{4}4h[8:3]/5h[8:3],,45,45,56,56,45,45,34,34,45,45,
{8}6,6,5,5,4,4,36,36,{4}3h[8:3]/6h[8:3],,45,
{16}1b-5[8:1]/8b,,,,1^4[8:1],,7,6,1^6[8:1],,6,5,1^4[8:1],,
5,4,1-5[8:1],,6,5,1^4[8:1],,7,6,1-5[8:1],,7-3[8:1],,1x,,7x,,8x,,,1x/5x,
{8}1x-4[8:1]/5x-8[8:1],,1^6[8:1],,1^4[8:1]/3,,1/7x,7,
{16}8b/5b,,3,4,2,,1b/4b,,6,5,7,,8-4[8:1],1,8,1,
8^5[8:1],,2,3, 8^3[8:1],,3,4,8-5[8:1],,4-1[8:1],5,
{8}8x,4x,8xw4[8:1],,8,,2x/6,2/6x,2x/6,
{16}3,4,{8}3-7[8:1],6-4[8:1],3^8[8:1],6,3,{24}7x,6x,5x,4b,,,
{16},,2,1,2,1,2,1,{32}E3,B3,B4,E5,E7,B6,B5,E5,1x,2x,3x,4x,{4}8b<1[4:3],{1}Cf,
{32}1hx[4:1]/2b,3,4,5,6,7,,,,,,,8hx[4:1]/7b,6,5,4,3,2,,,,,,,{8}1b/5b,{1}3b/7b,,,,E

Re:MASTER


  • 追加しました。修正等ありましたらよろしくお願いします。 -- けもがみ (2021-12-14 15:41:20)
  • {8}1b/5b,{1}3b/7b,→{32}1b/5b,,,,,{1}3b/7b,に修正しました。 -- けもがみ (2026-02-17 06:13:43)
  • 現在は譜面が修正されているようなので{32}1b/5b,,,,,{1}3b/7b,→{8}1b/5b,{1}3b/7b,に戻しました。 -- けもがみ (2026-02-17 06:54:24)
名前:
コメント:

タグ:

+ タグ編集
  • タグ:
最終更新:2026年04月12日 13:22