| アーティスト |
An & Ryunosuke Kudo |
BASIC
ADVANCED
EXPERT
MASTER
(182){4},,{8},
{8}Chf[4:1]/1b,,{16}3,4,
{8}2h[8:2]/5h[8:2],,,3/4>5[4:3],,,1h[8:6],,,,,,4,3,12,8,
4h[8:2]/7h[8:2],,,5<4[4:3]/6,,,8h[8:7],,,,,,,Cf/B4/B5,,,
{16}1,1,1,1,1,1,{8}1/8<1[4:3],,,4h[8:6],,,,,,8,7,65,4,
2h[4:1]/3h[4:1],,,6qq3[8:7]/7,,,1h[8:7],,,,,,,Chf[8:3],,,E3/B3/E7/B7,,,,,,,,
{16}45,{48}3,4,5,{16}6,,,37,,,{4}2-5[8:1]/6-1[8:1],26,
{8}34,,18,,57,6,5,24,,1/8-4[8:1],,48,2-8[8:1],6-4[8:1],2-6[8:1],6,
2,,48,,24,3,4,57,,18,,26,3-8[8:1]/7-4[8:1],,37,,
{8}2^5[8:1],1,8,7^2[8:1],6,5,4,35,2-4[8:1]/6,1,8-4[8:1],1,3,2,15,6,
7^4[8:1],8,1,2^7[8:1],3,4,5,6,
{24}47,6,5, 6V47[4:1],,,{16},46,,,1-5[8:1],,,,18,,7,,
{8}46,,18,,24,3,4,57,,1-5[8:1]/8,,15,7-5[8:1],3-1[8:1],7-3[8:1],3,
7,,15,,57,6,5,42,,18,,37,2-5[8:1]/6-1[8:1],,26,,
{8}7^4[8:1],8,1,2^7[8:1],3,4,5,64,3/7-5[8:1],8,1-5[8:1],8,6,7,84,3,
2^5[8:1],1,8,7^2[8:1],6,5,4,3,
{24}25,3,4, 3V52[4:1],,,{16},35,,,{16}8-4[8:1],7,6,,1x/8,,,,
{8}3h[4:1]/5h[4:1],,,5-1[8:1]/7,,,
8x,8^5[8:1],8,8x,8^3[8:1],8,8x,8-4[8:1],8,8x,
1h[4:1],,2,3/4-8[8:1],,,1x,2,3,4/8x,7,6,5/1xv4[8:1]*v6[8:1],37,{32},Cf,,,,,,,
{16}5,5,5,5,5,5,5/4-8[8:1],,,,,,
{8}1x,1^4[8:1],1,1x,1^6[8:1],1,1x,1-5[8:1],1,1x,
8h[4:1],,7,6/5-1[8:1],,,
8x,7,6,5/4x,3,2>7[8:1],1x/8x,{32}E3,E4,E5,E6,E7,,,,,,,,
{2}1p5[8:1]/8v6[8:1],
{12}4,4,5,3h[12:2],,C,3,3,4,2h[12:2],,C,2,2,4,3^6[8:1],,C,{4}6^3[8:1],,
{12}8,8,8,8,8,1,7,5,6,2,4,3,2v1[8:1]/5v4[8:1],25,25,{4},8v1[8:1]/5v6[8:1],,
{12}5,5,4,6h[12:2],,E3,6,6,5,7h[12:2],,B2/B3,7,7,5,8h[12:2],,B2/B3/E3,
7,5,6,4,4,5,2,4,3,5,5,4,7,5,6,4,4,5,2,3,4,5,6,7,
{2}8q4[8:1]/1v3[8:1],
{12}5,5,4,6h[12:2],,C,6,6,5,7h[12:2],,C,7,7,5, 6^3[8:1],,C,{4}3^6[8:1],,
{12}1,1,1,1,1,8,2,4,3,7,5,6,4v5[8:1]/7v8[8:1],47,47,{4},1v8[8:1]/4v3[8:1],,
{12}4,4,5,3h[12:2],,E7,3,3,4,2h[12:2],,B6/B7,2,2,4,1h[12:2],,E7/B6/B7,
2h,4h,3h,5h,5h,4h,7h,5h,6h,4h,4h,5h,2h,4h,3h,5h,5h,4h,7h,6h,5h,4h,3h,2h,
{4}1h[1:1]/Cf,,,{16}8,7,6,5,{4}4h[1:1],,{8},,,{16}7,6,
{4}5h[1:1],,,,8h[2:1],,4h[2:1],,Chf[1:4],,,,
3,,2,,1h[4:1],,8h[4:1],,7,8,1,2v4[8:1]*v8[8:1],{4},3,3,{16}3,,7,6,
{4}3/5h[4:1],3,3/4h[4:1],3,3h[8:1]/6-4[8:1],3h[8:1],3h[8:1]/5-8[8:1],3h[8:1],
3h[8:1]/7-4[8:1],3h[8:1],3h[8:1]/5-1[8:1],3h[8:1],
{8}38,7,61,2,37,6,25,3,48,7,26,3,47,6,15,26,
{16}3,7,3,7,4,6,4,6,5,5,5,5,5,5,5,5,4,5,3,5,2,5,1,5,8,5,7,5w1[8:1],6,5,4,{64}5,,,
{64}B5,Cf,B1,,,,,,,,,,,,,,,{4},,,{16}45,{48}6,5,4,{16}3,,,26,,,
{8}8-4[8:1]/4,,4,3,2-7[8:1]/6-3[8:1],,26,,
18,2,37,6h[8:5],4-1[8:1],5,4,,8,7,64,2h[8:5],4-1[8:1],,4,,
8,3,56,8h[8:2],4-1[8:1],5,4/7h[4:1],,8,16,25,34,
2-4[8:1]/5,1,8-4[8:1],1,2-6[8:1],1,7-5[8:1],8,1-5[8:1],8,7-3[8:1],8,2,1,8,27,
5x/6x,56,C,3x/4x,34,E1,4x/5x,2^4[16:1]/7^5[16:1],,{16}2x/7x,,,18,,,2,3,4,5,7,6,5,4,
{8}12,{24}3,4,2,4,,,{8}78,{24}6>8[4:1],5,7,5,,,{8}Cf,,,37,6,5,26,3,45,36,
{24}1x/8x,2,3,4,5,6,7,8,1,2x/7x,6,5,4,3<1[24:5],2,1,8,7,
{8}3x/6xpp1[8:5],,,Cf/5b,,,,2,3,4,
5-8[8:1]/7,4,35,2,17,6,5/3h[4:1],,5-8[8:1],7h[8:3],5,,2-6[8:1],,2/1h[4:1],,5,48,37,
{24}6,5,4,3pp6[8:5],2,1,8,7,6,{8},,,,,,
{12}15,15,15,37,37,37,{8}1bV38[4:1]/5bV74[4:1],,15,,,
{16}1,8,3,4,2,4,1,8,5,6,5,7,1,8,4,5,2,7,3,6,1,8,
{8}2V48[4:1]/7V51[4:1],,27,,,
{16}27,6,5,4,3,2,18,7,6,5,4,3,2z6[16:3],1,8,7,{8}6x/2x,,,
{64}2xv1[8:1]/7xv8[8:1]/E3/E7,B3/B6,B4/B5,E5,,,,,{8},,,,
{16}4,5,2,1,3,8,4,5,8,7,1,6,4,5,1,8,3,6,2,7,4,5,
{8}3-8[8:1]/6,7-4[8:1],3,7,,
{16}27,3,4,5,6,7,18,2,3,4,8,7,6,5,{24}3,4,3,4,3,4,{32}2,3,4,5,6,7,1/8z4[16:3],,
{4},Cf/4b>5[8:27],,,
{12},B6,B5,C,,,,E4,,,,E6,,,,,,,B3,B4,Ch[12:16],
{4},,,,{8},{48},,E7,E8,E1,E2,{1}E3,,,,E
Re:MASTER
- 追加しました。スライドの速さなどはまだ暫定なので判明次第修正します。 -- けもがみ (2021-12-14 15:43:11)
- 45/3456と45/6543の流しの拍子が32分じゃなく48分なので修正します。 -- 匿名 (2024-03-19 22:01:29)
- {8}12,{24}3,4,2,4,,,{8}78,{24}6>8[4:1],5,7,5,,, -- 匿名 (2024-10-15 19:28:41)
- ここ間違ってたので訂正します -- 名無しさん (2024-10-15 19:28:55)
- すみません -- 間違ってなかったので直します (2024-10-15 21:44:08)
- 最後の2,3,4,5,6,7,1/8,流しは24分じゃなく32分なので修正しました。 -- 名無しさん (2026-01-11 23:38:13)
- {8}12,{24}3,4,4,2,,,{8}78,{24}6>8[4:1],5,5,7,,,→{8}12,{24}3,4,2,4,,,{8}78,{24}6>8[4:1],5,7,5,,,の箇所の修正、休符の追加、スライドの速度の修正を行いました。 -- けもがみ (2026-01-30 21:25:24)
最終更新:2026年03月31日 19:15