| アーティスト |
Kai VS 大国奏音 VS 水野健治 |
BASIC
ADVANCED
EXPERT
MASTER
(140)
{1}4/5-8[4:3],4-1[4:3],5-8[4:3],5-8[4:3],5^8[4:3],4^1[4:3],4p5[4:3],
{4}2q3[4:3],5,6,7,8-4[4:1],4^7[4:1],3,2,1-5[4:1],5^2[4:1],6,7,
8-4[4:1],4^7[4:1],3,2,1^6[4:1],6-2[4:1],2^5[4:1],5,6-2[4:1],2^7[4:1],3,4,
3-7[4:1],7^2[4:1],6,5,6^3[4:1],3-7[4:1],2,1-5[8:1],
8,3-8[8:1]/7-4[8:1],37,2b/6b,
{16}3,4,3,6,5,6,3,4,3h[8:1],,B3/B4,,6,5,6,3,4,3,6,5,6h[8:1],,B6/B5,,
2,4,3,7,5,6,3,4,2h[8:1],,B3/B4,,7,5,6,2,4,3,6,5,7h[8:1],,B6/B5,,
2b,1,2,7b,8,7,2b,1,2h[8:1],,E3/E4,,7b,8,7,2b,1,2,7b,8,7h[8:1],,E7/E6,,
2b,1,3,7b,8,6,3b,1,2h[8:1],,E3/E4,,7b,8,6,2b,1,3,6b,8,7h[8:1],,E7/E6,,
2,2,8,1,1,7,{24}2,3,4,5,6,7,2,3,4,5,6,7,{16}2,1,2,1,4,7,8,7,8,6,5,8,
{24}3,2,1,8,7,6,3,2,1,8,7,6,{4}5b/1b,
2-7[8:1],6-3[8:1],2-7[8:1],6-3[8:1],2^7[8:1],5,
{16}56,,,45,,,{8}34,3-6[8:1]/4,,7-2[8:1],7,4-1[8:1],4,
{4}5<1[4:1],1>5[4:1],5,1,3^6[8:1]/7^2[8:1],3b/7b,
{8},5-8[8:1],5-2[8:1],,,7,{4}7-5[8:1]*-4[8:1],7,7-1[8:1]*-2[8:1],7,
7-4[8:1],7^2[8:1],{8}4-1[8:1],4-7[8:1],,,{4}8,3-6[8:1]/7-2[8:1],37,4b/8b,
{16}35,,6,5,,5,7,,{8}7h[4:1],6,5h[4:1],6,8h[4:1],7,6h[4:1],7,8h[4:1],7,5h[8:1],6,
{16}B8,B3,B6,B5,E8,E4,E7,E5,{8}C,1,28,37,{16}8b/B3/E4,,,1b/B6/E6,,,8b/Cf,,,,
1,8,2,7,1-5[8:1],8,2,,{32}1b/5b,Cf,,,,,,,
{8}78,16,{16}3,4,,4,3,,25,,1,1h[8:1],,2,2h[8:1],,3,3h[8:1],,4,4h[8:1],,2,,
B2,B5,E1,E7,E2,E6,B3,B4,B2,B5,E1,E7,E2,E6,B3,B4,C,,,1b/7b,,,2b/6b,,,, 1,,28,,37,,
8b/B3/E3,,,1b/B6/E7,,,7b/Cf,,,,1b/B6/E7,,,8b/B3/E3,,,2b/Cf,,,,
7,8,6,1,5,2,E7,E1,E6,E2,E5,E3,8,1,8,E2,E8,E3,E7,E4,E6,C,
{24}E8,B8,B1, E4,B4,B5, B7,B6,E6, E2,B2,B3,
{32}E1,E8,E7,E6,E5,E4,E3,E2,E1,E8,E7,E6,E5,E4,E3,E2,{4}E1/Cf,,
{4}4-1[8:1]/5-8[8:1],{16}4/5<4[4:1],,,2b,,,,,,,
7,1,8,2,1,2-6[8:1],,35,,1/2b,,8,84,,3,4,25,,6,5,7,2<3[4:1],4,3,8,2b,,,,,,,
2,1,4,5,8,7-3[8:1],,18,,4/7b,,1,15,,2b/6b,,3,4,2,1-5[8:1],3,4>6[16:3],,1,,4b,,,,,
12,,38,,7,8-4[8:1],6,5<3[16:3],,8,,5b,,,,,78,,61,,3,4-8[8:1],2,1>7[16:3],,4,,1b,,,
3,,24,,57,,28,28,,7b/1b,,4b/5b,,3b/7b,,1,8,,3,4,2,,15,15,,
3v8[8:1]/7-4[8:1],,26,,3b/7b,,,,,
{24}2,3,4,5,6,7,8,1,7,6,5,4,2,1,8,7,6,58,,,{12}7,7,7,5,6,3,4,3,5,6,5,4,3,4,6,5,6,
{24}2,1,8,7,6,5,7,8,1,2,3,4,{16}1b,,,,2,4,3,5,4,6,5,7,8,6,1,5,2,8,3,7,4,6,3,5,
{24}1,2,3,8,7,6,2,3,4,7,6,5,1,2,3,45,6,7,1,2,3,45,6,7,1,2,3,45,6,7,{16}2,1,8,7,
{4}65,E1/B1/B2/E3,45,E3/B3/B6/E7,
{8}7/8-4[8:1],8,5-1[8:1],5,3,3h[8:1],2>7[4:1],2,1,1,8,8,
{16}7b/8b,7b/8b,7b/8b,,2b/1b,2b/1b,2b/1b,,
E5,,,,,8/1h[4:1],,,,3,{8}3h[8:1],2-6[8:1],1,8-4[8:1],7,1,1,{16}2,4,2,,7,5,7,,1,8,1,,
{32}7,6,5,4,3,2,1,8,3b-7[16:1],4,5,6,7,8,1,2,{4}3b/Cf,
{2}4pp2[1:1]/8pp6[1:1],,,5w1[4:1],{12},,,6,4,5,3,5,4,{4}36,
2pp5[4:3]/B4/B5/E5,B6,B7,B8/B1/E1,7,6h[4:1],
{12}5h[4:1],,4,4h[4:1],,3,3h[4:1],,6,6h[6:1],{24},3,4,5,{4}6b-3[8:1]*-3[8:1],,,
{2}3^6[4:2],B4/E5,6^3[4:2],B5/E5,3^6[4:2],B4/E5,6^3[4:2],{16}Chf[16:7],,,,,,,1b,,,,,
8^3[4:1]*^5[4:1],,,,,,,,,,,26,,,,,1^6[4:1]*^4[4:1],,,,,,,,,,,73,,,
{8}25,25,36,47,8,25,1,{4}7-4[8:1]/4,7/2-5[8:1],2/6v3[16:1]*q2[16:1],
{16}6,,,4b/8b,,3,4,,1h[8:1]/5,,{32}6,5,{16}4,2,1,3,4-8[8:1],,71,,4b/5b,,
6,61,,3,4,52,,7,7,5,6,2,4,3,4b/8b,,
56,56,,8h[8:1]/4,,{32}3,4,{16}5,7,8,6,5-1[8:1],,28,,4b/5b,,
3,38,,2b/6b,,3,4,2,8-4[8:1],1,{32}6b<4[16:3],5,{16}4,8,,6b,,,,,
7x/3x,,6,5,7,1-5[8:1],8,{32}3b>5[16:3],4,{16}5,1,,3b,,,,,
7x/3x,,2,1,4,5-1[8:1],2,{32}7b<1[16:3],8,{16}1,5,,7b,,,
5,,46,,35,,28,28,,1b/7b,,4b/5b,,3b/7b,,1,8,,27,,6,3,45,45,,36,,1b/8b,1b/8b,,
7,1,7,1,8,2,8,3,4,3,6,5,6,{32}2,1,8,7,4,3,2,1,6,5,4,3,8,7,6,5,
2b,3,4,5,6,7,8,1,6b,5,4,3,2,1,8,7,
(70)
{4}2-5[32:1]/6-1[32:1],{64}6b<2[16:9]/2b>6[16:9],Cf,,,,,,,{4},,,{48},,6,5,4,{1}3,,,,E
Re:MASTER
- 追加しました。修正等ありましたらよろしくお願いします。 -- けもがみ (2021-12-21 00:14:08)
最終更新:2021年12月21日 00:15