アットウィキロゴ

Shiny Smily Story

アーティスト hololive IDOL PROJECT

BPM BASIC ADVANCED EXPERT MASTER Re:MASTER
168 3 7 10 12 -

EXPERT MASTER Re:MASTER
譜面制作者 サファ太 ものくろっく -

BASIC

{1}1,,1,,8,8,1,1x/8x,
1,1,2,2,3,3,4,4,4b/5b,
5h[1:1],,6h[1:1],,7h[1:1],,1h[1:1]/8h[1:1],,
8,7,6,45,3,2,1,1x/8x,
1-4[4:3],,8-5[4:3],,B4,B5,B3,B6,B2/B7,Cf,
{2}1x,1,2,2,3,3,455,5,6,6,7,7,1x/8x,,
8,8,7,7,6,6,45,45,4,4,3,3,2,2,1x/8x,18,
{1}1h[1:1]/8h[1:1],,1-5[8:13]/8-4[8:13],,,,,
E

ADVANCED

(168)
{1}3hx[1:1],4h[1:1],5h[1:1],6,
7^4[2:1],3^8[2:1],{2}7<2[4:3],,,1x/8x,
{4}7,7,78,,2,2,12,,7,7,8,8,1,1,28,,
3,3,34,,6,6,56,,4,4,5,5,{1}4-1[2:1]/5,8-4[2:1],
{2}3h[2:1],4,6h[2:1],5,3h[2:1],4,5h[4:1]6h[4:1],56,
{1}4^1[2:1],8^5[2:1],{4}4h[2:1],,5,5,4-1[2:1],,,,
{2}7h[2:1],8,2h[2:1],1,7h[2:1],8,1h[4:1]/2h[4:1],12,
{1}8-5[2:1],4-1[2:1],{8}8h[8:3],,,{4}1,1x/8x,1^4[2:1]/8^5[2:1],,,,{8},
{4}B3,B4,B5,B6,B7,B8,B1,B2,{1}B4/B5,B3/B7,
{4}2,2,12,,7,7,78,,1,1,8,8,18,2b/7b,,,
3,3,34,34,2,1,28,,7,7,78,78,6,5,46,,
3h[4:1],4,3x/4x,,6h[4:1],5,5x/6x,,4,4,5,5,45,36,2b/7b,,
2,2,21,21,3,4,35,,6,6,65,65,7,18,27,,
2h[4:1],1,2x/1x,,7h[4:1],8,8x/7x,,1^4[2:1]/8^5[2:1],,,,45,45,36,,
{1}2^5[2:1],6^1[2:1],{4}2,3,4,5,6,7,
{1}1hx[8:3]/8hx[8:3],,,,,
E

EXPERT

(168)
{1}4-1[4:3]/5h[1:1],,4-1[4:3]/5h[1:1],{4},,,4x/5x,
3x/4x-8[4:1],,,7,5xp1[4:1]/6x,,,7,
1x^4[2:1]/8x^5[2:1],,,,{8}4x/5x,4x/5x,,2x/7x,{4}2b/7b-3[8:1],,
2,1,7,68,7,8,2,13,2,1,7,68,17,{8}28,28,,37,37,,
{4}2,1,7,68,7,8,2,13,3h[4:1],4h[4:1],5h[4:1],6,
{8}47,4/7p2[2:1],{4},,,{8}1x/8x,1x/8x,,2b/7b,{4},45,
{8}3,3,4,,6,6,5,5,7h[4:1],,5,5,,46,46,,34,,2,2,,{1}1/2^5[2:1],{4}45,
6h[4:1],5,47,47,56,{8}3,3,{4}4,18,{8}27,{4}2h[4:1]/7,4,3/6h[4:1],{8}5,5,7,7,,25,,3x/7x,,,
4,4,6h[4:1],,5,5,{4}5/6p3[2:1],,,{8},2,2,,35,,46,46,,{1}5/7p4[2:1],
{4}1x,1h[4:1],{8}4,4,{4}3,46,57,{8}6,5,4,,37,,2,2h[4:1],,8,8,,17,,2q6[8:3]/8p4[8:3],{4},,,3^6[2:1],
,{8},8x,{4}8x,7^2[2:1],,{8},4x,{4}4x,3^6[2:1],,{8},8x,8x,,1,1,,7,7h[4:1],,5,5,,46,
,35,35,,2,1x/2x,1x/2x,1x/2x,,37,37,,6,5x/6x,5x/6x,5x/6x,
{4},E8,C,E4,B2/E3,B1/B8/E1,B7/E7,B4/B5/E5,{8}1x,1x,8x,,2x/7x,2x/7x,,4hx[4:1]5hx[4:1],{4},B2/B3/B6/B7/Cf/E3/E7,,1x/8x,
27,34,56,{8}78,{4}78,1/2q6[4:1],,{8}8x,{4}8x,27,56,34,{8}12,{4}12,7q3[4:1]/8,,{8}2x,2x,12,
12,{4}1^6[4:1]/2^5[4:1],,,{8}78,78,{4}7^4[4:1]/8^3[4:1],,,{8}16,{4}16,7,4/8h[4:1],3>6[4:1],,,B3/B4/B5/B6/Cf,,
17,56,34,{8}12,{4}12,7<3[4:1]/8,,{8}1x,{4}1x,28,34,56,{8}78,{4}78,1/2>6[4:1],,{8}7x,7x,78,
78,{4}7^4[4:1]/8p3[4:1],,,{8}12,12,{4}1q6[4:1]/2^5[4:1],,,{8}78,78,7p1[8:3]*<1[8:3],{4},,,{8}2x/7x,27,,36,3b/6b,,1x/8x,1x/8x,
2x/7x,,34,3/4h[4:1],,5,5h[4:1],,7,7h[4:1],,8,8,,17,,
8-4[8:1],,2,2-5[8:1],,6,6-1[8:1],,2,2,,3x/4x,3x/4x,,7b/8bV25[4:7],7b/8b-5[8:13],
{1},,,,
E

MASTER

(168)
{2}B1/B6/B7/B8,B3/B4/E3/E4/E5,B1/B2/E1/E2/E3,B5/B6/E5/E6/E7,E4/E5/E6,B1/B8/E1/E2/E8,B3/B4/B5/B6/Ch[2:1]/E5,{4},1/8-5[8:1],
3/8x,{8}46,4,47,4,4-1[8:1]/8,,4x/7,,25,5,35,5,1-4[8:1]/5-8[8:1],,
1x/5x,,3,24,,6,57,,45,2b/7b,,25,2/5h[2:1],,6>7[4:3],6,
{4},B7/B8,,B5/B6,3/4h[8:3],{8}1,1,,25,25,,{2}4-1[8:1]/6h[4:1],5-1[8:1]/7h[4:1],{8}6/8h[8:3],,1,1,,25,2pp6[8:3]/5,,
8h[2:1],,,,,7,5,4,6,5,4,3,,12,{4}12,2-5[8:1]/3-5[8:1],2x/3x,6-4[8:1]/7-4[8:1],6x/7x,
{8}45,45,,37,,6,4,5,8,8-5[8:1],,{48}E5,B4,B3,E3,B2,B1,{2}E1,
{4}4h[8:27]/5,5,3,3,5,3,3,3,6,{8}5,{4}5,3V57[2:1],,,,{8}56,
{4}5h[2:3]/6,7,4,4,4,7,{8}6,6,,47,{2}4^1[8:1]/7pp1[8:1],2qq8[8:1]/5^8[8:1],{8}4^1[8:1]/7,,5,{4}5,2-5[8:1]/7-4[8:1],2x/7x,{8},
{4}4/5h[2:1],6,{8}3,3h[8:3],6p3[8:3],,,,,,,1,{4}1,4h[2:1]/5,3,{8}5,5h[8:3],3q5[8:3],,,,,,,8,8,,
3/4h[2:1],,8,,3,3h[8:3],1,,4h[2:1],,8,,3,3h[8:1],1,,27,{16}1,8,{8}1,4-1[8:1]/5-8[8:1],,4x/5x,,2b/7b,,78,{16}1x,2x,3x,4x,1x,2x,3x,4x,1x/5x,,,,
{8}3x/7<3[8:1],,,1,1-5[8:1],,6b,,3/7<3[8:1],,,1,1-5[8:1],,6b,,3/7<3[8:1],,,1,1-5[8:1],,6b,,3x/7<3[8:1],,,1,1,2,4x/7x,4x/7x,,
8h[8:1],5h[8:1],7h[8:1],6,5/8-4[8:1],58,,,1h[8:1],4h[8:1],2h[8:1],3,1-5[8:1]/4,14,,
{4},6-1[16:1],4-1[16:1],5q1[8:1],3-1[8:1],7pp1[8:1],4<1[8:1],,
{8}6,37,37,,15,1w5[8:1]/5,,1x,,4x/5x,B3/B4/B5/B6/Cf,,,,2x/7x,,
{4}1-6[8:1]/5h[4:1],1b,4h[4:5]/7,{8}6,6,,2qq6[8:3],2,,,,,,
{4}1-3[8:1]/8-6[8:1],1x/8x,27,{8}45,45,,3qq2[4:1]/6pp7[4:1],45,,,,,
1,28,2h[4:1]/8<4[8:1],,,,2b/3x,2b/3x,1,18,1>6[8:1]/8h[4:1],,,,7x/8b,7x/8b,3,
{4}1-5[8:1]/2h[4:1],1x,7h[4:1]/8-5[8:1],8x<3[4:1],B2/B3/Cf,{8},1x,1x,,2b/7b,,
{4}1/5-1[8:1],4b,4-8[8:1]/8,{8}5,5,,2<5[8:3]/7>4[8:3],36,,,,,,
{4}3-7[8:1]/7,4,2/6-2[8:1],{8}5,5,,3q8[4:1]/6p1[4:1],27,,,,,
8,17,1>5[8:1]/7h[4:1],,,,6x/7b,6x/7b,8,18,1h[4:1]/8<3[8:1],,,,1b/2x,1b/2x,3,
45,45,,1h[8:3]/6h[8:3],,,,,45,2x/7x,,45,4h[2:1]/5,,2>8[4:3],2,,,
1,1,,3,3,,5x/8x,5x/8x,,37,1b/5h[4:1],,1b,,
3x/6x,4,5,3x/8x,6,5,1x/6x,3,4,2x/7x,4,5,3x/6x,,5x/8x,5V71[2:3]/8h[4:7],
{1},,,,
E

Re:MASTER




名前:
コメント:

タグ:

+ タグ編集
  • タグ:
最終更新:2022年01月01日 21:02