BASIC
(187)
{1},,,,1,,8,,
1,1,2,2,3,3,4,45,5,5,6,6,7,7,8,18,
B8,B1,B7,B2,B6,B3,Ch[1:1],,
{2}8x,8,8,,7,7,7,,6,6,6,,5,5,45,,
{1}4,34,2,12,8,18,1h[1:1]/8h[1:1],,
1-4[4:3],,8-5[4:3],,1-5[4:3],,8-4[4:3],,1b,,
1h[1:1],,2h[1:1],,3h[1:1],,4h[1:1]/5h[1:1],,
{2}5,5,5,5,6,6,56,,7,7,7,7,8,8,{1}1h[1:1]/8h[1:1],,
B1/B8,B2/B7,B3/B6,B4/B5,B3/B6,B2/B7,Ch[1:1],,
{4}8,,8,,7,7,7,,6,,6,,5,5,45,,4,,4,,3,3,3,,2,,2,,18,18,1x/8x,,
{2}1,2,12,12,3,4,34,34,5,6,56,56,7,8,1b,,
8,8,7,6,5,5,45,45,3,3,2,1,8,8,18,18,
{4}1,,2,,3,3,3,,4,,5,,45,45,45,,6,,7,,8,8,8,,1,1,1,,18,18,1x/8x,,
{2}8h[2:1],,8,7,6h[2:1],,6,45,3h[2:1],,3,12,{4}8,8,1,1-5[4:3],
{1},,,
E
ADVANCED
(187)
{4}6,6,5,5,4,4,35,,2,2,1,1,8,8,18,,
7,7,8,8,1,1,28,,3,3,4,4,4x/5x,4x/5x,3x/6x,,
{1}7-4[2:1],3-8[2:1],7-3[2:1],2-6[2:1],
{2}7h[2:1],8,2h[2:1],1,7h[2:1],8,1h[4:1]/2h[4:1],12,
{4}3,3,4,,6,6,5,,3,3,4,,5,5,46,,7,7,8,,2,2,1,,7,7,8,,1,8,27,,
{2}E3,B3,B4,,E7,B6,{1}B5,4x^1[2:1],8^5[2:1],{4}3,3,2,2,1x/8x,,,18,
7b,7,78,78,2,2,12,12,3,3,4,4,5,5,46,,
3,3,34,34,6,6,56,56,7,8,1,1^4[2:1]/8^5[2:1],,,,,
{2}3-8[2:1],,7,78,6-1[2:1],,2,12,3^8[2:1],,7,78,6^1[2:1],,2,,
{4}8b,8,{2}7z3[4:3],,,{4}2,2,{2}1s5[4:3],,,
{4}6,6,{2}7V53[4:3],,,2h[2:1],1h[2:1],8h[2:1],7,1b/8b,,,,
B8/E8,B6/E6,{4}E4,B3,{2}B2,B8/E8,B6/E6,{4}B2,B3,E4,,
{2}B6/E7,B3/E3,{4}E6,E5,{2}E4,B2/E3,B7/E7,{4}E2,E1,E8,,
{2}6hx[2:1],5h[2:1],4h[2:1],3,2h[2:1],1h[2:1],8h[2:1],7,
{1}6^1[2:1],2^5[2:1],{2}6x,4x/5x,{1}3x>6[1:1],,
B6,B5,B4,B3,B2,B1,C,{4}1x/8x,,,18,
7b,78,7,78,2,12,2,12,3,3,4,4,45,45,36,,
2,12,2,12,7,78,7,78,6,5,4,4^1[2:1]/5^8[2:1],,,,,
{2}2-5[2:1],,6,56,7-4[2:1],,3,34,2^5[2:1],,6,56,7^4[2:1],,3,,
{1}1b-4[2:1],5-1[2:1],{4}2,2,12,,7,7,78,,
{1}6-1[2:1],2-6[2:1],{4}7,7,78,,2,2,12,,
{1}3^8[2:1],7p3[2:1],{4}2,2,12,,7,7,78,,
{1}6^1[2:1],2q6[2:1],{4}7,8,1,1-4[2:1]/8-5[2:1],,,,,
3,3b,4,4,5,5,46,,7,7,8,8,1,1,18,,2,2,1,1,8,8,17,,
8,8h[4:1],1,{8}1x/8x,{4}1x/8x,2x/7x,3x/6x,{8}4x/5x,
{1}4x/5x,,,
E
EXPERT
(187)
{4}56,7,18,2,34,34,25,5,34,2,18,7,56,56,47,3,
12,3,45,6,78,78,16,2,5h[4:1],4,{8}45,{4}45,4x/6x,3x/5x,2x/7x,{8}1x/8x,1x/8x,,
{4}6h[2:1],,5h[1:1],,E6,E7,E8,,3h[2:1],,4h[1:1],,E4,E3,E2,,
6h[2:1],5,4h[2:1],5,6h[4:1],5,47,,3h[2:1],4,5h[2:1],4,3h[4:1],4pp5[8:3],,,
3x,24,6,57,{8}3,3,{4}4,2-5[8:1]/4,,6,57,{8}6,6,{4}4,35,2/6^3[4:1],,,
2x,35,7,46,{8}3,3,{4}5,2^5[8:1]/6,,7,7,56,{8}47,{4}47,25,1h[8:3]/8h[8:3],,{8},
{8}6-4[4:1],,,,3h[8:3],,,4x,,3x/4x,,4x/5x,,5x/6x,5x/6x,,
7-1[4:1],,,,2h[8:3],,,1x,,1x/2x,,1x/8x,,2x/7x,2x/7x,,
{4}5h[4:1],6h[4:1],7h[4:1],8h[4:1],1h[4:1],2h[4:1],3h[4:1],4,
45,{8}6,5,,3,4,4h[8:3],{4},,1x/8x,45,
2b/7b,{8}6,5,{4}47,18,3-8[8:1],7-4[8:1],1-5[8:1],6,
7h[4:1],5h[4:1],3h[4:1],{8}1,1,,34,34,,1b/5b,,,,
{4}27,45,{8}3,4,{4}25,7-2[8:1],3-6[8:1],1-5[8:1],4,
37,{8}46,46,,28,,3b>5[2:1]/7b,{1},
{4}7,5,6h[4:1],5pp5[2:1]*qq5[2:1],,,,,6,5,7h[4:1],5p4[2:1],,,,,
2,4,3h[4:1],4pp4[2:1]*qq4[2:1],,,,,2,3,45,45,C,,,1b/8b,
45,45,{12}6,,6,5,,5,{4}7xV53[4:1],1xs5[8:3],,,
6,6,{12}3,,3,4,,4,{4}2xV46[4:1],8xz4[8:3],,,
3,3,{12}6,,6,5,,5,{4}7xV53[4:1],1xs5[8:3],,,
7h[4:1],5h[4:1],4h[4:1],2h[4:1],7h[4:1],5h[4:1],3h[4:1],1h[4:1],{1}Cf,,
{8}5,5,4,,6,6,5,7h[8:5],,8,8,,B6/E6,,,,4x,4,5,,3,3,4,2h[8:5],,1,1,,B3/E4,,,,
5x,5,4,,6,6,5,7h[8:5],,8,8,,B6/E6,,,,4x,4,5,,3,3,4,2h[8:3],,1,1,,45,,,,
{4}6,5,4,{8}3,{4}3h[4:1],4,5,6,{8}7,{4}7h[4:1],5,4,{8}3,3,{4}6x,5x,4x,3x,
B6,B7,B8,B1,B2,B3,B4,B5,{16}1hx[16:3],,,2hx[16:3],,,3x,,8hx[16:3],,,7hx[16:3],,,6x,,{1}6b<5[4:5],,
Ch[1:2],,,{2}E6,E4,{4}5hx[2:5],4,4,4,4,4,4,4,3,2,1,8,{8}2x/7x,2x/7x,{4},4x/5x,18,
3b/6b,{8}7,8,{4}16,45,2-5[8:1],6-1[8:1],4-8[8:1],7,
6h[4:1],8h[4:1],1h[4:1],{8}3,3,,24,24,,1b/5b,,,,
{4}36,18,{8}2,1,{4}38,6-3[8:1],2-7[8:1],4-8[8:1],1,
37,{8}17,{4}17,35,2bqq5[8:5]/6b,,,,{8},
{4}7,5,6h[4:1],5pp5[2:1]*qq5[2:1],,,,,6,5,7h[4:1],5p4[2:1],,,,,
2,4,3h[4:1],4pp4[2:1]*qq4[2:1],,,,,2,3,45,45,C,,,1b/8b,
7h[4:1],6h[4:1],5h[4:1],4h[4:1],3h[4:1],2h[4:1],1h[4:1],8,
6,57,{8}3,3,{4}24,6,5/7p3[4:1],,,
2h[4:1],3h[4:1],4h[4:1],5h[4:1],6h[4:1],7h[4:1],8h[4:1],1,
3,24,6,5<3[2:1]/7,,,,1b/8b,
7h[4:1],5h[4:1],4h[4:1],2h[4:1],8h[4:1],6h[4:1],4h[4:1],2,
6,57,3,24,{8}6,6,{4}5p1[4:1]/7,,,
1x/8x,6x/7x,4x/5x,2x/3x,1x/8x,6x/7x,4x/5x,2x/3x,
1,{8}27,{4}27,3/7>6[8:5],Cf,,,,{8},
{4}56,7b,18,2,34,34,25,5,34,2,18,7,56,56,47,3,
12,3,45,6,78,78,16,2,5h[4:1],4,{8}45,{4}45,4x/6x,3x/5x,2x/7x,{8}1x/8x,
{1}1x/8x,,,
E
MASTER
(187)
{4}2-8[8:1]/6,25,{8}4,{4}4-8[8:1],2-7[8:1],6-3[8:1],2h[4:1],{8}4,15,,
{4}7-1[8:1]/3,74,{8}5,{4}5-1[8:1],7-2[8:1],3-6[8:1],7h[4:1],{8}5,84,,
{4}2-8[8:1]/6,25,{8}4,{4}4-8[8:1],2-7[8:1],6-3[8:1],2h[4:1],{8}4,15,,
{4}7-1[8:1]/3,74,{8}5,{4}5,24,57,24,{8}6,57,,
{2}4-1[8:1]/8-5[8:1],{8}2,,2,4x,{4}3x,3,4,{8}4,6x,{4}5x,5,4,{8}4,5x,{4}3x,3,3/5-8[8:1],4x/5,
3^6[8:1],8,7^2[8:1],{8}4,4-1[8:1],,8,8-4[8:1],,2,,1,1h[4:1],,
4,4-2[8:1]*V68[8:1],,,,1x,1hx[4:1],,6,{4}2-4[8:1]/7-5[8:1],2x/7x,{8},37,
{2}2-7[8:1]/6-3[8:1],{8}1,1,8,8h[4:1],,5,{4}5^2[8:1],8^5[8:1],
{8}3,3h[4:1],,6,6^1[8:1],,2,2<6[8:1],,4,,5,{2}5w1[8:1],{8},8x,
{4}8hx[4:1],3^8[8:1],6^3[8:1],{8}1,1h[4:1],,8,{4}8-6[8:1],2-4[8:1],1,
{8}3,3,4,2,7,{4}7<1[4:1],1s5[2:1],,,{8},37,,
6,6h[8:15],,5,5,,8,8,,B6/E6/E7,,B3/E3/E4,,1,1,,
3,3h[8:15],,4,4,,1,1,,B3/E3/E4,,B6/E6/E7,,8,8,,
{4}6<4[4:5],5,5,5,5,5,5,{8}45,36,27,,36,36,,1-5[8:1]/8-4[8:1],,1x/8x,,,B4/B5/E4/E6,,
{32}8x,7x,6x,5x,4x,3x,2x,1x,{4}8x,
36,{8}4/7h[2:3],4,5,6,{4}8-6[8:1],8-3[8:1],8-6[8:1],8-3[8:1],8,
{8}26,15,4^7[8:1]/8^3[8:1],,48,,26,26,,7b,5b,3b,1b,8x,8x<4[4:1],,
{4}4V68[4:1],2,{8}1,1,{4}7-1[8:1],2-6[8:1],5-3[8:1],2,{8}1,1,
{4}8x>4[4:1],4x<8[4:1],8x>4[4:1],4x<4[2:1],Cf,,,3x/8h[4:5],
{2}5-3[8:1],1-3[8:1],{8}4^1[8:1],,7,7^4[8:1],,1,1h[4:5],,
{2}4-6[8:1],8-6[8:1],{8}5^7[8:1],,2,2-4[8:1],,6,6h[4:5],,
{2}1-3[8:1],4-2[8:1],{8}1^4[8:1],,5,5^8[8:1],,4,4,,
3,3,5,5,4,4,{4}3v8[4:1]/5v8[4:1],,,1-4[8:1]/6,1b/7qq4[1:1],
3h[6:1],3h[6:1],2hx[6:1],2hx[6:1],1,2pp2[8:1]/8qq8[8:1],,,
{12}37,37,37,{4}3^5[8:1]/7^5[8:1],3^1[8:1]/7^1[8:1],3x/7x,3h[6:1]/7h[6:1],1^4[8:1]/5^8[8:1],,7xpp5[1:1],
{4}4h[6:1],4h[6:1],3hx[6:1],3hx[6:1],2,2qq2[8:1]/5pp5[8:1],,,
{2}8p3[8:1]*-5[8:1],2p5[8:1]*-7[8:1],4-1[8:1]*p7[8:1],6p1[8:1]*-3[8:1],{1}8b,,
{8}5/6h[4:1],5,4,,3h[4:1]/4,4,5,6-4[8:1],,2-8[8:1],2,,5h[4:1],,
1,1-3[8:1],,4-6[8:1],,2,2^7[8:1],,5,5-8[8:1],,1,1,,27,,45,,
2h[4:1]/4,5,6,,5/7h[4:1],4,3,3-5[8:1],,7,7-1[8:1],,4h[4:1],,
8,8-5[8:1],,4-1[8:1],,7,7^2[8:1],,5,5^2[8:1],,6,6,,37,,,8,
{4}8-4[8:1],2-6[8:1],7,{8}1,{4}1>5[4:1],5V71[4:1],1>5[4:1],5,{8}1,
{4}1,28,37,4^1[8:1]/6,4^7[8:1],4-8[8:1],4,1h[4:1]/6,
4,4,3h[4:1]/5b,5,2h[4:1]/4b,4,1h[4:1]/3b,3,
{16}8,,,B4/E4/E5,,,B7/E7/E8,,1,,,B5/E5/E6,,,{8}B2/E2/E3,8h[1:1],,,,,,,{16}E5,E4,{1}E3,
1-4[2:3],,8-5[2:3],{2}B2,E4,
{4}3,3/5^8[4:1],3,3,8,4^1[4:1]/7,6,5,1,2,35,45,{8}3x/6x,3x/6x,{4},1-5[8:1]/8-4[8:1],1b/8b,
{16}27,,,5,{8}4,4,36,27,{4}1-3[8:1]/8-4[8:1],1-5[8:1]/8-6[8:1],1-3[8:1]/8-4[8:1],1-5[8:1]/8-6[8:1],18,
{8}37,48,{4}1^6[8:1]/5^2[8:1],15,{8}37,37,,2b,4b,6b,8b,1x,1xV35[4:1],,
{4}5>1[4:1],7,{8}8,8,{4}2-8[8:1],7-3[8:1],4-6[8:1],7,{8}8,8,
2-6[8:1]/7,,8,8-4[8:1],,1,1,5,{16}E3,B3,B4,E5,E7,B7,B8,E1,E2,B2,B3,E4,E8,B7,B6,E6,
{2}1h[1:1],8-6[8:1],{8}5^8[8:1],,2,2^5[8:1],,7,7,,
{2}5-3[8:1]/8h[1:1],1-3[8:1],{8}4^2[8:1],,7,7-5[8:1],,4,4,,
{2}3h[1:1]/7-5[8:1],4-6[8:1],{8}8^5[8:1],,4,4^1[8:1],,5,5,,
6,6,4,4,5,5,{4}4v1[4:1]/6v1[4:1],,,{16}1-5[8:1] ,,5,5,1b,,,,
{4}7-3[8:1],8-4[8:1],1-5[8:1],2-6[8:1],3-7[8:1],4-8[8:1],5,1/6<2[8:1],
5,{8}4>8[8:1],4,5,,6<2[8:1],6,5,,4q8[8:1],4,7h[4:1],,1x,,
{4}2-6[8:1],1-5[8:1],8-4[8:1],7-3[8:1],6-2[8:1],5-1[8:1],4,4<8[4:1],
8>4[4:1],4<8[4:1],8>4[4:1],4<4[2:1],Cf,,,28,
{4}2-6[8:1],1-5[8:1],8-4[8:1],7-3[8:1],6-2[8:1],5-1[8:1],4,8/3>7[8:1],
4,{8}5<1[8:1],5,4,,3>7[8:1],3,4,,5p1[8:1],5,2h[4:1],,8x,,
{4}7-4[8:1],2-5[8:1]/7,2/8-4[8:1],1-5[8:1]/8,1/8-3[8:1],1-6[8:1]/8,17,{8}8,8,
57,4,3,24,5,6,57,8,{4}1-4[8:1]/8-5[8:1],1x/8x,{8}36,27,18,,
{4}4-1[8:1]/5-8[8:1],4x/5x,{8}27,{4}2/7-3[8:1],1-5[8:1],6-3[8:1],2h[4:1],{8}8,46,,
{4}7-1[8:1]/3,74,{8}5,{4}5-1[8:1],7-2[8:1],3-6[8:1],7h[4:1],{8}1,35,,
{4}2-8[8:1]/6,25,{8}4,{4}4-8[8:1],2-7[8:1],6-3[8:1],2h[4:1],{8}8,17,,
{2}2-5[8:1]/6-1[8:1],{8}37,{4}3h[8:1]/7h[8:1],2h[8:1]/6h[8:1],1h[8:1]/5h[8:1],
{1}4V61[8:1]/8V25[8:1],,,
E
Re:MASTER
(187)
{4}3/7-4[8:1],87,{8}1,4-8[8:1]/3,,2>5[8:1],,7>2[8:1],,4<7[8:1],,1,1,,
8-4[8:1]/2,,81,,3,6/5-2[8:1],,8-5[8:1],,3-8[8:1],,4,,
26,{16}1,8,1,8,{8}2-5[8:1],,21,,8,6/5-1[8:1],,
7<4[8:1],,2<7[8:1],,5>2[8:1],,8,8,,
7v4[8:1]/1v4[8:1],,71,,26,2x/6x,,3h[8:1]/7h[8:1],,4h[8:1]/8h[8:1],,
5V38[4:1]/1V74[4:1],,,,,1b-4[8:1]/5b-8[8:1],,,,
7,,7,5,65,,6,,6,,6,4,54,,5,,5,,5,3,43,,4,,4-1[8:1]/8-5[8:1],,8x/4x,,
6>3[8:1],,1,,2,2-5[8:1],1,2,,8,8-4[8:1],,1,1,25,,
3-6[8:1],3,8,,7,7<1[8:3],8,7,,8,8,,26,
{16}3,5,3,5,3,5,{8}1w5[8:1],,1b,,
2/8h[4:1],,5,4h[4:1]/6,,2,1-5[8:1],8,7h[4:1],,
4,5/3h[4:1],,4,2<7[8:1],7>2[8:1],,,,35,,
8-5[8:1],5-2[8:1],3,1-6[8:1]*-4[8:1],,1x,,
5<8[8:1],,54,,2>5[8:1],,21,7h[4:1],,8,1pp1[4:1]/7,,8qq8[4:1],,,,
1,2,8,7,62,4,5,3/7-4[8:1],,2q5[8:3],2,1,,,8,,
5h[4:1]/7h[4:1],,,57,6,5,4,7-3[6:1],,3-7[6:1],,7-3[6:1],,1,1,,
2h[4:1]/4h[4:1],,,3,24,,1,2-6[8:1]/8,,7-1[8:1],,3-5[8:1],,8,8,,
7,6,5,4h[8:3],6,,6,,2,3,4,5h[8:3],3,,3,,48,,
{16}3,5,3,5,2,6,2,6,1-5[8:1],7,1,7,{8},,8/4h[4:1],,
{32}2,1,8,7,6,5,4,3,{8}1bxw5[8:1],,1x,,
28,3,54,6,71,2,4-8[8:1]/3,,2>5[8:1]/4,,2/7-3[8:1],,87,,
2-5[8:1]/6v1[8:1],,26,,3/7h[4:1],,8,1/7<4[8:1],,
1b-6[8:1],2b-5[8:1],1bx,2bx,,
47,2,8w4[8:1],,8x,,
17,6,54,3,2-6[8:1]/8,,1-5[8:1],,8-4[8:1],,7-3[8:1],,6-2[8:1],,
8,8-4[8:1],,8x/3>5[8:3],,B5/B4/Cf,,,,,
{16}8,7,6,5,2,3,4,5,{4}7h[1:1],6,,6,5h[1:1],6,,6,
4h[1:1],3,,3,2h[4:3],3,,3,4,24,
{8}3,3,4,,5,,57,,6,6,5,,4,4,6,6,
{16}3,7,3,7,2,8,2,8,{32}B1,C,B5,,{4},,
{16}8x/1x,8x/1x,{4}2b/7b,
2-6>5[4:1],5-3[8:1],{12}8,,8,2,,2,7,,7,1-5-7[8:3]*v2-4[8:3],,,,,,,,,
8,8,8,17,,,
2h[6:1],,5,3h[6:1],,6,4h[6:1],,7,5p4[4:1],,,,,,
2x,1x,8x,7-3<4[4:1],,,4-6[8:1],,,1,,1,7,,7,2,,2,
{4}8-4-2[8:3]*v7-5[8:3],,,
1>4[8:1],1h[4:1],6-3[8:1],6h[4:1],2-7[8:1],2h[4:1],
8<5[8:1],8h[4:1],{1}A3/E4/E3/B3f,,
{8}2-7[8:1]/6-3[8:1],,26,,15,2,3,4/6h[4:1],,7,8-4[8:1],1,2h[4:1],,
5,46,,3-5[8:1],7-3[8:1],3,7,,28,28,,
1-4[8:1],4-7[8:1],6,8-5[8:1]*-3[8:1],,8x,,
4>1[8:1],,54,,8/7<4[8:1],,3,2h[4:1],,
4,4qq4[4:1]*pp4[4:1],,,,,
8h[4:1],,6,5,4,37,8,1,2/4<7[8:1],,1,1w5[8:1],,1,,
3b/7b,,2-8[8:1]/6,,4,,7,7,5,6h[4:1],,
4,35,,1,1,82,,3/7-1[8:1],,5,,2,2,8/1-4[8:1],,
8-5[8:1]/1,,8/1>4[8:1],,8<5[8:1]/1,,81,,
3,3,5,5,{16}4b,6,4x,6,4,6,4x,6,3b,5,3,5,3,5,3,5,2b,4,2x,4,2,4,2x,4,
1h[16:3],,,2h[16:3],,,3,,7h[16:3],,,6h[16:3],{8},5,1hb[8:7],{4},,,
{24}4,5,6,{1}7h[2:9],3h[1:7],,,,{4}4,4,2,2,4,4,2,2,4,4,2,2,{8}4b,
1b/5hb[8:3],,,{32}7,8,1,2,3,4,5,6,{8}8bxw4[8:1],,8x,,
17,6,54,3,28,7,6/5-1[8:1],,5/7<4[8:1],,
7/2-6[8:1],,21,,3v8[8:1]/7-4[8:1],,37,,
6/2h[4:1],,1,7/3>8[8:1],,
5b-1[8:1],7b-4[8:1],5bx,7bx,,
{16}2,8,2,8,{8}1w5[8:1],,1x,,
28,3,54,6,7-3b[8:1]/1,,8-4b[8:1],,1-5b[8:1],,2-6b[8:1],,3-7b[8:1],,
1,1-5[8:1],,1b/6<4[2:1],,B4/B5/Cf,,,,,
{16}1,2,3,4,7,6,5,4,{4}2-5[8:1],6,4-1[8:1],6,
{8}2>5[8:1],,6,6>8[8:3],,7,,,{4}7-4[8:1],
3,5-8[8:1],3,7<4[8:1],{8}3,3<1[8:3],,2,{4},
2-5[8:1],6,4-1[8:1],6,2>5[8:1],
{8}6,6>8[8:3],,7,,,7,7,1,1,
{16}2,8,2,8,3,7,3,7,46,,,,,,,,1-5b[8:1],,5,5,{4}Cf,
7-2[8:1],2-5[8:1],5-8[8:1],8-4[8:1],
4-1[8:1],1-6[8:1],6-3[8:1],3,
{8}8>6[4:1],8,7x,,1<3[4:1],1,2x,,8>6[4:1],8,7x,,1<3[4:1],1,{4}2x,
2-7[8:1],7-4[8:1],4-1[8:1],1-5[8:1],5-8[8:1],8-3[8:1],3-6[8:1],6,
7>2[8:1],{8}4,4w8b[8:1],,4,,26,,81,2>4[8:1]/7<5[8:1],,27,,
{16}1,8,1,8,{4}2<7[8:1],7-3[8:1],3<6[8:1],6-2[8:1],2<7[8:1],7-3[8:1],3<6[8:1],6,
{8}1<3[4:1],1,2x,,8>6[4:1],8,7x,,
1<3[4:1],1,2x,,8>6[4:1],8,7x,,
1b,,2x-6[8:1],2,7x>2[8:1],7,3x<6[8:1],3,
7x-3[8:1],7,1x>4[8:1],1,8x<5[8:1],8,1x,,
24,3,4,57,6,5,42,81,5/7-3[8:1],,87,,2-6[8:1],31,2x,,
5x-8[8:1]/4x-1[8:1],,5b/4b,,
27,7-3[8:1]/2,,1>4[8:1],,5<8[8:1],,3h[4:1],,1,7<4[8:1]/5-1[8:1],,,,
8-4[8:1],,2,2-6[8:1],,8<5[8:1],,4>1[8:1],,6h[4:1],,8,4-8[8:1]/2>5[8:1],,,,
1-5[8:1],,7,7-3[8:1],,1>4[8:1],,5<8[8:1],,3h[4:1],,1,5-1[8:1]/7,,
8-4[8:1],,82,,17,17,,2h[8:1]/6h[8:1],,1h[8:1]/5h[8:1],,
8-2>3-5[4:1]/4-6<7-1[4:1],,,,
E
最終更新:2026年09月15日 20:45