アットウィキロゴ

Falsum Atlantis.

アーティスト kanone

BPM BASIC ADVANCED EXPERT MASTER Re:MASTER
160 4 8 12+ 14 -

EXPERT MASTER Re:MASTER
譜面制作者 はっぴー 翠楼屋 -

BASIC


ADVANCED


EXPERT


MASTER

(160)
{1}Ch[8:15],,
{2}8-4[2:1],3x,1-5[2:1],6x,8-4[2:1],3x,1-5[2:1],6x,
8z4[8:5],3x,1s5[8:5],6x,7s3[8:5],4x,2z6[8:5],5x,
{4}7h[4:3],5,5,5v2[2:1],6,6,5,25,2h[4:3],4,4,4v7[2:1],3,3,4,74,
{8}6,6,4,4,5,5,3,3,7,7,5,5,4,4,2,2,
{16}6,4,5,4,5,4,5,4,6,4,5,4,5,4,5,4,
{32}B5,B6,B7,B8,B1,B2,B3,B4,E5,E6,E7,E8,E1,E2,E3,E4,{2}Cf,

{16}1,8,,8,2,,2,4,3,5,4h[8:1],,7,,7,5,6,4,5h[8:1],,2,,
2,4,3,5,4h[8:1],,7,,7,5,6,4,5h[8:1],,3,,
2,4,3,5,4h[8:1],,6,,6,4,5,3,4,2,5,2,6,3,5,4,6,,37,,
8,1,,1,8,,2x/6x,,7,3,6,4,5h[8:1],,4,,2,6,3,5,4h[8:1],,5,,
3,4,,6,5,,7,5,6,3,{4}4x^7[4:1],,8x,
{24}17,,,1x/7x,6x,5x,{8}4hx[4:1],,{16}3,,,45,,,56,,47,,6,5,
7xp3[4:1],,,4x,,,,,1x,,,,{12}24,24,24,{16}2h[8:1]/4h[8:1],,,4h[8:1]/5h[8:1],,,
6,5,7x,,4,,3h[4:1]/8,,{24}8x,7x,6x,{16}5xq1[4:1],,,4,,,3x,,2q6[4:1],,,8,,,
7x,,7,,7,5,,5,4,,34,,2,5,,6,4,,{16}7xp3[4:1],,,3x,,,,,1x,,,,
{12}24,24,24,{16}2h[8:1]/4h[8:1],,,4h[8:1]/5h[8:1],,,
6,5,7,,3,,1h[4:1]/7,,{24}7x,6x,5x,{16}4xq8[4:1],,,3,,,1x,,2q6[4:1],,,1,,,
8x,,{4}7h[32:27],,,{32},,,8,{24}1,2,3,{1}4b-8[8:5]/8bs4[8:5],

{4}1h[4:3]/5x,,,8v2[8:1]*v6[8:1],{1}8bs4[8:5]*z4[8:5],{4}2h[4:3]/6x,,,
{4}1-4[8:1]*-6[8:1],{1}1bq4[8:5]*p6[8:5],{4}7h[4:3]/3x,,,
{4}8V24[8:1]*V64[8:1],{1}8bV26[8:5]*V62[8:5],{4}2x/6x,,{12}18,18,18,27,,,
{12}3b-8[12:1],,7,7-4[12:1],,2,2-6[12:1],,8,8>7[8:4],,5,5,,8,8,,4,4,,2,2x/8x,,,
6-1[12:1],,2,2-5[12:1],,7,7-4[12:1],,1,1s5[4:1],,5,5s1[4:1],,6,6,,7,7,,8,8x/3x,,,
2-5[12:1],,5,6-1[12:1],,4,3-8[12:1],,4,5s1[4:1],,1,1s5[4:1],,4,4,,2,2,,1,1,8,1,
2hx[12:2]/6b,,4,4h[12:2],,5,5h[12:2],,7,7,,28,
{24}2x/8x,3x,4x,5x,6x,7x,8x,1x,2x,3x,4x,5x,7x,8x,7x,8x,6hx[12:4],,,,,,,,

{1}Cf,,{16}E5,,,,E6,B5,B4,E4,,,B2/E3,,,E7/B7,,,C,,,E8/B8,,,B6/E7,,
E4/B4,,,B2/E3,,,C,,{4}7,7h[4:3],4h[4:1],,3h[1:1],4,5h[4:1],,
6h[4:3],5,4h[4:1],,3h[4:1]/5h[4:1],,4-8[8:1]/6,,2b/6b,
{16}3,4,3,,2h[8:1]/5h[8:1],,,3h[8:1]/6h[8:1],,,4<2[8:5]/7h[16:14],,{1},
{16}3x/7x,,,,6,5,6,,7h[8:1]/4h[8:1],,,6h[8:1]/3h[8:1],,,5-1[8:3]/2h[8:5],,{4},,,
{12}2,2,8,3x/7x,,,{16}6,5,6,,7h[8:1]/5h[8:1],,,
2h[8:1]/4h[8:1],,,5x<3[8:5]/6hx[16:14],,{1},
{16}3x/6x,,,,5,4,5,,27,,27,,4,5,4,3hx[16:5]/6hx[16:5],{2},
{16}4,5,4,5,4,5,4,5,3h[16:3],,,4,3,,25,,6h[16:3],,,5,6,,74,,
3h[16:3],,,4,2,,15,,6h[16:3],,,5,7,,84,,3h[16:3],,,4,2,,16,,7h[16:3],,,8,6,,51,,
2h[16:3],,,1,3,,48,,7h[16:3],,,8,6,,51,,{8}24,2,36,6,57,5,46,6,
{16}4,5,4,5,3,6,3,6,2,7,2,7,1,8,1,8,{24}1x,2x,3x,4x,5x,6x,7x,8x,1x,2x,3x,4x,
{32}E7,B6,B5,E5,E3,B3,B4,E5,E8,B7,B6,E6,E2,B2,B3,E4,
{2}8hx[2:1],{24}1,8,1,{8}8,3b/6b,,

45,{16}1,8,5,6,3,4,1,,2/8h[8:1],,{24}2b,3,4,
{16}7,8,7,1,4,3,7,4,6,5,1,2,8,5,6,,35,,26,,
7,1,4,3,6,5,1,,2/8h[8:1],,{24}2b,3,4,
{16}7,8,6,1,4,3,7,5,8,1,4,3,5,2,{24}8,7,6,1,2,3,{16}45,,
7,8,6,3,4,2,8,,7/1h[8:1],,{24}7b,6,5,
{16}3,4,2,8,5,6,1,8,5,7,2,4,1,8,5,,64,,73,,
2,8,5,6,3,4,8,,71,,{24}7b/1,6,5,
{16}3,4,2,2,8,1,6,6,5,4b/7b,,25,25,,1b/Cf,,,,
{8}8-3[8:1]*-5[8:1],8,{48}8x,Cf,,,,,{8},2,28,{24}2b/8,3,4,{16}6,6,
8h,1,2/5h,3,4/1h,8,7/3h,6,5/1h,2,3/7h,4,5/1h,,37,,
6,5,7,1,4,3,6,5,8,,71,,{24}7b/1,6,5,{16}3,3,
1h,8,7/4h,6,5/8h,1,2/6h,3,4/8h,7,6/2h,5,{32}4/E2,E3,E4,E5,E6,E7,E8,E1,
{4}E2/Cf,,,{8},3x/4x,{4}Cf/8b,,,{16}1,8,1,8,2x/7x,,27,,34,,34,,56,,56,,
7,3,7,3,6,4,5,2,4,3,8,1,{32}8,7,6,5,4,3,2,1,{16}8b,,,,

2b,4,3,7,5,6,1b,4,3,8,5,6,4,5,4,5,
E3/B2,4,3,E7/B7,5,6,B1/E2,4,3,B8/E8,5,6,4,5,3,6,
2h[32:1],4,3,7h[32:1],5,6,1h[32:1],3,2,8h[32:1],6,7,4h[32:1],5,4,5,
{32}E3,B2,4,,3,,E7,B7,5,,6,,E2,B2,4,,3,,E8,B7,5,,6,,E3,B3,{16}4x,2x,5,
1h[16:1],6h[16:1],1h[16:1],6h[16:1],2h[16:1],7h[16:1],2h[16:1],7h[16:1],
3h[16:1],8h[16:1],3h[16:1],8h[16:1],5h[16:1],6h[16:1],5h[16:1],6h[16:1],
8h[16:1],7h[16:1],8h[16:1],7h[16:1],3h[16:1],4h[16:1],3h[16:1],4h[16:1],
2h[16:1],5h[16:1],2h[16:1],5h[16:1],1h[16:1],8h[16:1],1h[16:1],8h[16:1],
{32}2,3,4,5,6,7,8,1,2x-6[16:1]/4x,,,,,,,,
{48}2b/8x,B2,Cf,B6,,,,,,8b/1x,B8,Cf,B4,,,,,,1b/6b<3[8:6],B1,Cf,B5,,,{1},1b/Cf,,,,E

Re:MASTER


  • 追加しました。修正等ありましたらよろしくお願いします。 -- けもがみ (2022-01-17 18:59:49)
名前:
コメント:

タグ:

+ タグ編集
  • タグ:
最終更新:2026年04月11日 18:06