| アーティスト |
削除 feat. Nikki Simmons |
BASIC
ADVANCED
EXPERT
MASTER
(90)
{96}6b/7b,5V36[96:47]/8V27[96:47],14,{32}23,,,,,,,{4},,,
{16}3h[8:1]/8,,4,2-5[16:1],,1,1,2,7<3[8:1],,1,28,,,,,
1/6h[8:1],,5,7-4[16:1],,8,8,7,2>6[8:1],,8,17,,,,8h[8:1],
,1,8,8,2,2,6,6,4-2[16:1],4-6[16:1],8,8,,,,1h[8:1],
,8,1,1,7,7,3,3,5,5,46,46,{32}3,7,2,6,3,7,2,6,
{16}4/5h[8:1],,1,7-4[16:1]/8,,1,1,7,2>6[8:1],,8,17,,,,,
4h[8:1]/5,,8,1/2-5[16:1],,8,8,2,7<3[8:1],,1,28,,,,1h[8:1],
,8,1,1,7,7,3,3,5-7[16:1],5-3[16:1],1,1,,,,8h[8:1],
,1,8,8,2,2,6,6,4,4,35,35,{32}2qq7[4:3],6qq3[32:23],3,7,2,6,3,7,
{1},
{16}4/6h[8:1],,5,5,6,,7-5[16:1],4,,4,7,,3,3,4,,
3h[8:1]/5,,4,4,3,,2-4[16:1],5,,5,2,,6h[8:1],,5,6,
4^1[8:1]/7,,56,,7,,8,8^5[8:1],,,12,,3,,4,4,
3qq4[4:1]/5h[4:1],,,,,,6,6h[16:3],,,5,,{32}1-5[16:1]/8-4[16:1],27,3h[8:1]/6h[8:1],,,,,,
{16},,,,45,,6,5h[16:3]/7,,,4h[16:3],,,2,,36,
45,,36,2^4[16:1]/7,18,,,{32}7,6,{16}5,,3,4,25,6,6,5,
4/6pp5[4:1],,,,2,2,,3h[16:3],,,4,,45,,56,56,
,18,,3,4,25,,5h[32:1]/6h[32:1],,47,,36,2/7-5[16:1],18,,,
4h[8:1]/7-1[16:1],,,,2h[8:1]/7-3[16:1],,,,8h[8:1],,1,8,2-8[16:1]/7,,45,,
2-4[16:1]/7h[8:1],,,,2-6[16:1]/5h[8:1],,,,7h[8:1],,5,3,{4}1^4[16:1]/5^8[16:1],
5-1[16:1],5/7-3[16:1],{16}2h[8:1]/7,,1,2,38,,7<2[16:3],2,
18,,1h[4:1],,,,8,1-5[16:1]/8-4[16:1],,36,27,18,,,27,,
4-2[16:1]/5,,6,,4/7-5[16:1],,8,,1h[8:1]/7,,4h[4:1],2,3h[8:1],,,,
4/5-7[16:1],,3,,2-4[16:1]/5,,1,,2/8h[8:1],,5h[8:1],7,6h[8:1],,5,6,
4-1[16:1]/7,,2,,4/5-8[16:1],,7,,45,,1,1pp4[16:13]/8qq5[16:13],,45,,,
{1},
{96}6b/7b,5V36[96:47]/8V27[96:47],14,{32}23,,,,,,,{4},,,
{48}36,2,1,8,7,6,3,2,1,8,7,6,3,2,1,8,7,6,3,2,1,8,7,6,{16}45,45,36,27,{8}1b/8b,,
1-5[16:1]/5h[4:1],7,1,4h[4:1]/8-4[16:1],2w6[16:1],8,2b,,
{48}36,7,8,1,2,3,6,7,8,1,2,3,6qq3[16:3],7,8,1,2,3,6,7,8,1,2,3,{8},,1b/8b,2h[8:1]/7h[8:1],
,2/4h[8:1],5h[8:1],7h[8:1],{32}3-7[16:1],7,3,7,3,7,3,7,{4}3b,
{48}36,2,1,8,7,6,3,2,1,8,7,6,3,2,1,8,7,6,3,2,1,8,7,6,{16}45,45,4-8[16:1]/5-1[16:1],,{48}2,3,4,7,6,5,{8},
27,4^1[16:1]/8^5[16:1],15,,2V46[8:1]/6V82[8:1],48,2b/6b,,
56,45,{16}34,2,18,,6,57,,3,24,,45,,
{32}4,6,5,6,3,6,5,6,2,6,5,6,1,6,5,6,8,6,5,6,7,6,5,6h[32:5],{16},,5,,
4/7-5[16:1],,18,,7,,3,4,2-4[16:1]/5,,1,1,2,8h[8:1],,1,
7-1[16:1],,45,,7,3,3,3,2-8[16:1]/4,,7,7,2,6,6,57,
4^1[16:1]/8,,,,45,,67,6V82[8:1]/7V13[8:1],,2V46[8:1]/3V57[8:1],,,,,,,
{32}2,1,2,1,3,8,3,8,4,7,4,7,5,6,5,6,4,5,4,5,3,4,3,4,2,5,2,5,1,6,1,6,
{16}7-4[16:1]/8-3[16:1],,16,16,78,,25,25,,4^1[16:1]/7,47,,5,,6,6,
5^8[16:1]/7,,24,,1,1h[8:1],,8,,56,34,1-5[16:1]/8-4[16:1],,{32}18,27,{16}36,1b/8b,
{8},,3h[4:1],,4,5,4,,
45,,6h[4:1],,5,4,5,,
{1}45,,
{64}2b/6b,37,48,15,{16}2h[16:11]/6h[16:11],,,{4},,,
{16}4/5h[8:1],,2-4[16:1],1,,1,28,,5h[8:1]/6,,7-5[16:1],8,,8,17,{32}1,2,
{8}3h[8:5]/4,,4,,4,{32}4,5,6,7,8-4[16:1],1,2,3,4,,,,
8,,,,2,5,2,5,1,6,1,6,8,7,8,7,1-5[16:1],2,3,4,8-4[16:1],7,6,5,1,,,,8,,,,
26,,,,4,7,4,7,3,6,3,6,2,5,2,5,1,8,2,7,1-5[16:1],8,3,6,1,8,4,5,1,,,,
37,,6,5,6,5,7,,45,,3,4,3,4,2,,7,6,5,4,1,2,3,4,56,,48,,,,,,
26,,3,4,3,4,2,,45,,6,5,6,5,7,,2,3,4,5,8,7,6,5,34,,15,,,,,,
2/7^4[16:1],,,,8,1,8,1,2-5[16:1]/7,,,,1,8,1,8,2/7-3[16:1],,,,8,1,8,1,{16}27,,18,18,
24,3,57,6,14,3,58,6,{32}45,3,2,1,7,6,5,4,1,2,3,4,5-1[8:7]/6,,18,,
{1}34,5h[16:47],4h[16:31],,,E
Re:MASTER
最終更新:2026年04月15日 19:53