アットウィキロゴ

Altale

アーティスト 削除

BPM EASY BASIC ADVANCED EXPERT MASTER Re:MASTER
90 3 4 9 12 13+ -

EXPERT MASTER Re:MASTER
譜面制作者 Jack チャン@DP皆伝 -

EASY


BASIC

(60){12},{4}1,,1,
{4},8,,8,
{4},1,1,1,
{4},8,8,8-5[4:1],
{4},,,1-4[4:1],
{4},,,8,
{4}8,7,7,6,
{4}6,5,5,4,
{4}4,3,3,2,
{12}2,,,1h[4:1],,,,,,1/8,,1,
{12}1,,,2,,2,2,,,3,,3,
{12}3,,,4/5,,,4/5,,,5,,5,
{12}5,,,6,,6,6,,,7,,7,
{4}7,1/8,1/8,1-5[4:1],
{4},,,8-4[4:1],
{4},,,1/8,
{4}1/8,2h[4:1]/7h[4:1],,1-4[4:1],
{4},,,8-5[4:1],
{4},,,1b,{1},
{4},,,1h[2:1],
{4},,,8h[2:1],{1},
{12},,,1/8,,1,1,,2,2,,3,
{12}3,,4,4,,5,5,,6,6,,7/8,
{12}7/8,,,1/8,,7,7,,5/6,5h[4:1]/6h[4:1],,,
{12},,,4/5,,3,3,,2,2,,1,
{12}1,,8,8h[4:1],,,,,7,7,,6,
{12}6,,5,5,,,4/5,,,4,,3,
{12}3,,1/2,1h[4:1]/2h[4:1],,,,,,1/8,,2,
{12}2,,3,3,,4,4,,,(55.333)5b,,,
{4},5,,4/5,
{4},,,5/6,
{4}5/6,,,3/4,
{4}3/4,,,(27.666){1}2-6[4:1],,,
E

ADVANCED

(60){12},{4}3,4,5h[4:1],
{4}4,5,4h[4:1],5h[4:1],
{4}6h[4:1],7,6,5h[4:1],
{4}4h[4:1],3h[4:1],2,{12}1,1,1,
{12}2h[4:1],,,3,3,3,4h[4:1],,,5,5,5,
{12}6h[4:1],,,7,7,7,1b/8b,,,1/2,,3,
{12}3h[6:1],,4,2/5,,7,7h[6:1],,8,1/6,,2,
{12}2h[6:1],,1,3/8,,6,6h[6:1],,5,4,4,3,
{12}5,5,6,4,3,2,5,6,7,1/8,,4/5,
{4}4-8[6:1]/5-1[6:1],,,7h[4:1],
{4}5h[4:1],{12}6,5,4,3,2,,3/4,,5,
{12}5,,4,4h[4:1],,,5,4,3,2h[4:1],,,
{12}4h[4:1],,,3,4,5,6,7,,5/6,,4,
{12}4,,5,5h[4:1],,,4,,,3,3,4,
{12}2/5,,,6,6,5,4/7,,,2,2,1,
{12}7,7,8,1,1,8,2/7,,,3h[4:1],,,
{12}4,3,4,5,6,5,6h[4:1],,,3,,,
{12}2,3,4,5/7,,,7,6,5,2/4,,,
{1}4/5<4[2:1],
{4}6,5,4,3,
{4}2-6[6:1],,,6h[4:1],
{4}5h[4:1],4h[4:1],3h[4:1],4h[4:1],
{4}5h[4:1],6h[4:1],3>6[3:1],,
{4},{12}2/7,3,4,5h[6:1]/6h[6:1],,,7,6,5,
{12}3h[6:1]/4h[6:1],,,2/5,,4/8,4^1[6:1]/8^5[6:1],,,,,,
{12},,,5,4,3,2,1,{24}8,,7h[8:1],,,5h[8:1],,,
{24}4h[8:1],,,2h[8:1],,,1b,,,,,,,,{12}4,3,1/2,8,7,
{12}5/6,7,8,1/2,1/8,7/8,1/6,,,7/8,1,2,
{12}3^8[6:1]/4^7[6:1],,,,,,,,,1,8,5/7,
{12}8,1,{24}2/4,,2h[8:1],,,4h[8:1],,,5h[8:1],,,7h[8:1],,,8b,,,,,,
{4},4h[2:1]/6h[2:1],,(55.333),
{4}3/5,4/6,2/5,4/7,
{4}2,6,4,5h[4:1],
{4}4h[4:1],{12}5,6,7,4,3,2,5h[4:1],,,
{12}4h[2:1],,,,,,5,4,3,(27.666){1}2-6[4:1],,,,,,,
E

EXPERT

(60){12}4/5,3/6,,4,4,,5,5,4,3,
{12}2/5,,6,6,,7,7,6,5,7/4h[12:5],,,
{12}5h[6:1],,,3/6,,5,5,,4,4,5,4/6,
{12}5,4,3/5,4h[6:1],,3,4,5,6,7b/3h[6:1],4,7,
{12}4/6h[6:1],5,4,5/2h[6:1],3,5,4/7h[6:1],6,4,5/3h[6:1],4,5,
{12}2/6h[6:1],5,2,8/3h[6:1],4,8,1/6h[6:1],5,1,8/7p5[6:1],1,2,
{12}3,,,1/2q4[6:1],8,7,6,,,2/7,{24}1,1,8,8,
{12}1,2/7,3/6,4/5p4[6:1],3,2,1,,,4/3h[6:1],2,1,
{12}5/6h[6:1],7,8,2/4,3/5,4/6,5/7,{24}4,4,5,5,{6}2/6,{24}4,4,
{12}3/7,,5q4[4:1]/6<3[4:1],3/4,,,,,,2h[4:1],4,4,
{12}7h[4:1],5,5,2h[12:1],3h[12:1],4h[12:1],5h[12:1],6,,7h[4:1],5,5,
{12}2h[4:1],4,4,7,6,4/5,2,3,4/5,7h[4:1],5,5,
{12}2h[4:1],4,4,7,7h[12:1],6h[12:1],5h[12:1],4h[12:1],3h[12:1],2h[4:1],4,4,
{12}7h[4:1],5,5,2z6[6:1],,,,,,5/7,{24}6,6,{12}5,
{12}2/4,{24}3,3,{12}4,7h[4:1],2h[6:1],,,1/8,2/5,4/7,{24}6,5,{12}6,
{12}2/5,{24}3,4,{12}3,4h[12:1]/7h[12:1],,{24}3,4,{6}2h[12:1]/5h[12:1],{24}6,5,{6}4/7,{24}3,4,
{12}2/5,2,3,4,5,6,7^4[6:1],,,3,,,
{12}2q6[6:1],1,8,7,,,7^2[6:1],5,4,3,,,
{12}4>5[12:5],5,5,5,,,,,,1b/8b,,,
{4}3h[4:1],4h[4:1],5h[4:1],6h[4:1],
{4}7-3[12:1],,,3^6[6:1],
{4}7,{12}7,6,5,4,3,2,1/8,,,
{4}7-5[12:1],1-3[12:1],8-4[12:1],4w8[6:1],
{4},{12}2/6h[6:1],5,1,7/3h[6:1],4,8,5/6<2[6:1],4/5,3/4,
{12},,,7/8,1/6,2/5,1/8,2/7,3/6,1/2,3/8,4/7,
{24}5h[6:1]/6h[6:1],,,,,,4/3h[6:1],,,,2,,5/6h[6:1],,,,7,,1b/8b,,,2b/7b,,,
{24}6b/3b>6[4:1],,,4b/5b,,,8b,,,,,,,,{12}5,4,3,,{36}3,,3,{6}4,{36}6,,6,{12}5,5,4,4,{36}5,4,5,4,,,{12}3,,3,
{12}4,5,6,7,,4/5,2-6[12:1],,7,7-3[12:1],,2,
{12}2,,{24}5,4,{8}3b/7b,2b/6b,5b/1bw5[12:5],4b/8b,1b,,
{48},,,,,,,,,,,,3h[2:1]/7h[2:1],,,,,,,,,,,,,,,,,,,,,,,,(55.333),,,,,,,,{36}3,,3,
{48}4,,,,,,,,{36}6,,6,{12}5,4,{36}3,,3,{12}4,,5,4,,1/5,
{12}2/6,2/6,3/7,3-6[12:1]/7-2[12:1],,,,,,5h[4:1],,,
{12}4h[4:1],,,6,5,4,3,4,5,6h[4:1],,,
{12}3h[2:1],,,,,,7,5,4,(27.666){1}2-6[4:1],,,,,,,
E

MASTER

(60){12}2,8/1>5[6:1],,7,6,,8,8,1,1,
{12}2/7^4[6:1],,2,3,,2,3>5[4:1],6,5,6,,,
{12},,7,1/8<4[6:1],,2,3,,1,5/1p4[6:1],6,7,
{12}8,7,6,5^8[6:1],,,3,2,1,7b/3b-8[12:1],8-5[12:1],5-2[12:1],
{12}6,7,6,7-4[12:1],4-1[12:1],1-6[12:1],2,3,2,2-5[12:1],5-8[12:1],8-3[12:1],
{12}7,6,7,6-1[12:1],1-4[12:1],4-7[12:1],3,2,3,3^8[12:1],3,3,
{12}3/7^4[12:1],7,7,7/2^7[12:1],2,2,2/6p1[12:1],6,6,6/2^5[12:1],2,2,
{12}2/7q4[12:1],7,7,7/3^8[12:1],3,3,3/7q5[12:1],7,7,7/2^7[12:1],2,2,
{12}2/6p8[12:1],6,6,6/3^6[12:1],3,3,3/8-5[12:1],8,8,8/4-1[12:1],4,4,
{12}4/8pp4[4:1]*qq4[4:1],8,8,8,,,,,,6/3^6[6:1],,,
{12}6p2[6:1],,,2q7[6:1],1,8,8,1,,3/6^3[6:1],,,
{12}3q7[6:1],,,7p2[6:1],8,1,1,8,,7/2>6[6:1],,,
{12}6p1[6:1],,,1>6[6:1],8,7,7,8,,2/7^4[6:1],,,
{12}4w8[6:1],,{24}2,3,{3}4,{12}7,3,{24}5>1[6:1],5,6,6,{12}7,
{24}6,6,7,7,{12}8,{24}1<5[6:1],1,2,2,{12}3,{24}2,2,3,3,{12}4,{24}4<8[6:1],4,3,3,{12}2,
{24}3,3,2,2,{12}1,{24}8>4[6:1],8,7,7,{12}6,{24}7,7,6,6,{12}5,7/2^5[12:1],,{24}8,8,
{12}2/7,6,7,3/6p2[12:1],2,2,3/6,,,2,,8-4[9983:416],
{12}1/2,1/8,7/8,7,,1-5[24:1],7/8,1/8,1/2,{48}4<4[6:1],3,2,1,8,7,6,5,{12}4,
{48},,,,,,,,,,,,1b,,,,,,,,,,,,,,,,,,,,,,,,8h[6:1],,,,,,,,{36}1,,1,
{48}2h[6:1],,,,,,,,{36}3,,3,{12}4,5,{36}6,,6,{12}5h[6:1],,6,4,,6,
{12}4-1[6:1]/5-8[6:1],6,3,4/5,,,4,3,2,1h[6:1],,{36}8,,8,
{48}7h[6:1],,,,,,,,{36}6,,6,{12}5,4,{36}3,,3,{12}4h[6:1],,3,5,,2,
{4}1>8[4:3],,1,1,
{12}1b,2b/7b,3b/6b,6/3^6[6:1],7,{36}7,,7,{12}6p8[6:1],7,{36}8,,1,{12}8>4[6:1],7,{36}6,,6,
{12}5,,7,1/8^5[6:1],2,4,5p1[6:1],4,2,1w5[6:1],2,3,
{24}1,,,,,,4>8[6:1]/8<4[6:1],,,,4/8,,4/8,,,,,,1b/3b,,,6b/8b,,,
{24}2b/4b,,,5b/7b,,,5b/4b-1[6:1],,,,5,,6,,{12}7,8,3/6^3[6:1],2,{36}2,,2,
{12}3q1[6:1],2,{36}1,,8,{12}1<5[6:1],2,{36}3,,3,{12}4,3,2,8/1^4[6:1],7,5,
{12}4q8[6:1],5,7,8w4[6:1],7,6,8,,,1>5[6:1]/5<1[6:1],,4/8,
{12}1/5,,,{24}6b/8b,1,2,1b/3b,8,7,5b/7b,8,1,2b/4b,1,8,{4}7b<2[6:1]/8b<2[6:1],
{48},,,,,,,,,,,,1>7[6:1]/2>7[6:1],,,,,,,,,,,,,,,,,,,,,,,,(55.333)8,,,,,,,,{36}1,,1,
{48}2,,,,,,,,{36}3,,3,{12}4,5,{36}6,,6,{12}5,,6,4,,6,
{12}4>7[3:1],5,{16}6,,,,,,,,{36}8,,8,{48}1,,,,,,,,{36}8,,8,
{48}7q3[3:1],,,,,,,,,,,,,,,,,,,,,,,,,,,,,,,,{36}8,,8,{48}1,,,,,,,,{36}1,,1,
{12}8h[2:1],,,,,,1,8,7,(27.666){1}6/2-6[4:1]*-6[4:1],,,,,,,
E

Re:MASTER


名前:
コメント:

タグ:

+ タグ編集
  • タグ:
最終更新:2026年10月04日 09:33