アットウィキロゴ

レッツゴー!陰陽師

アーティスト 「新豪血寺一族 -煩悩解放-」

BPM EASY BASIC ADVANCED EXPERT MASTER Re:MASTER
150 2 2 8 9+ 13 -

EXPERT MASTER Re:MASTER
譜面制作者 Jack 某S氏 -

EASY


BASIC

(150){1},,,,,,,,
{2}5,5,
{2}5,5,
{2}5,5,
{2}5,5,
{2}5,5,
{2}5,5,
{2}5,5,
{1}4/5,,,
{1}7,
{1}6,
{1}7,
{1}2,
{1}5h[2:1],
{1}5h[2:1],,
{4}5,,,2b,
{4},,,2,
{4},5,,5,
{4},5,,2,
{4},5,,5,
{4},5,,2,
{4},5,,5,
{4},5,,2,{1},,
{2}2/6,3/7,{1},,,
{2}3/7,2/6,{1},
{1}5,
{1}2h[1:2],,,,
{1}1/8,
{1}1/8,
{1}1/8,
{1}1/8,
{1}7-2[4:3],,,
{1}1/8,
{1}1/8,
{2}1/8,2/7,{1},,
{1}7,
{1}6,
{1}7,
{1}2,
{1}5h[2:1],
{1}5h[2:1],,
{4}7,,,2b,{1},
{1}6,
{1}7,
{1}2,
{1}5h[2:1],
{1}5h[2:1],,
{4}5,,,2,{1},
{4}5,,,2,{1},
{1}2h[1:1],,
{4}5,,,2,
{4},5,,5,
{4},5,,2,
{4},,,2b,
{4},,,2b,
{4},,,2b,
E

ADVANCED

(150){1}5h[1:2]/6h[1:2],,,,
{1}3h[1:2]/4h[1:2],,,,
{4}4,4,4,4,
{4}4,4,4,4,
{4}5,5,5,5,
{4}5,5,5,5,
{4}4,4,4,4,
{4}5,5,5,5,
{4}4,4,5,5,
{4}4,5,4,5,
{1}4h[2:3]/5h[2:3],,
{1}1-5[4:1],
{1}8-4[4:1],
{2}4/6,3/5,
{4}1/2,1/8,7/8,,
{1}4-8[4:1],
{1}5-1[4:1],
{2}7/8,1/2,
{4}1,8,7,1b/6,
{4}5h[4:3],,,1,
{4}4,4/6,4,4/6,
{4}4,4/6,4,1,
{1}2^5[4:1],
{4}4,4/6,4,1,
{4}4,4/6,4,4/6,
{4}4,4/6,4,1,
{1}2^5[4:1],
{4},1/2,,7/8,
{4},1/2,,7/8,
{4},3/4,,5/6,
{4},3,4,5/6,
{4},2/8,,1/7,
{4},2/8,,1/7,
{4},5/6,,3/4,
{4}3,4,5,6b,
{4}7,8,1,1/2,
{4}2,1,8,7/8,
{1}1h[1:1]/8h[1:1],,
{4}3,4,5,4/6,
{4}6,5,4,3/5,
{2}3h[4:1]/4h[4:1],5h[4:1]/6h[4:1],
{1}3h[2:1]/6h[2:1],
{4}3,2,1,7/8,
{4}6,7,8,1/2,
{1}2h[1:1]/7h[1:1],,
{4}2,3,4,5/7,
{4}7,6,5,2/4,
{1}3h[1:1]/6h[1:1],,
{1}1-5[4:1],
{1}8-4[4:1],
{4}5/6,5/6,3/4,3/4,
{4}1/2,1/8,7/8,,
{1}4-8[4:1],
{1}5-1[4:1],
{4}7/8,7/8,1/2,1/2,
{4}1,8,7,1b/6,
{1}1-5[4:1],
{1}8-4[4:1],
{4}4/6,4/6,3/5,3/5,
{4}1/2,1/8,7/8,,
{1}4-8[4:1],
{1}5-1[4:1],
{4}7/8,7/8,1/2,1/2,
{4}1,8,7,1b/6,
{4}7/8,7/8,1/2,1/2,
{4}1,8,7,1b/6,
{2}7/8,1/2,
{1}4h[4:3]/5h[4:3],
{1}3h[4:3]/6h[4:3],
{1}2h[4:3]/7h[4:3],
{4}4,4/6,4,4/6,
{4}4,4/6,4,1,
{4}4,4,3,1/5,
{4}6,6,7,1/5,
{4}4,4,5,5,
{1}3h[1:2]/6h[1:2],,,
E

EXPERT

(150){1}3h[1:2],,
{1}7h[1:2],,
{1}4h[1:2],,
{1}8h[1:2],,
{4}5h[4:31],6,6,6,
{4}6,6,6,6,
{4}6,6,6,6,
{4}6,6,6,6,
{4}6,6,6,6,
{4}6,6,6,6,
{4}6,6,6,6,
{4}6,6,6,6,
{1}3>6[4:5],,
{4}2/6h[4:3],3,4,5,
{4}3/7h[4:3],2,1,8,
{1}2^5[2:1],
{1}7^4[2:1],
{4}1,5/6,1,5/6,
{4}8,3/4,8,3/4,
{4}5,6,7,8,
{4}1-4[8:1],,5h[4:1],2b,
{4}6,5,6,1b,
{4}2,3,4,5,
{4}6,5,6,1b,
{4}7,2^5[4:1],,,
{4}6,5,6,1b,
{4}2,3,4,5,
{4}6,5,6,1b,
{4}7,2^5[4:1],,,
{4}1,8,7,2/6,
{4}5,4,3,2/6,
{4}4,5,6,3/7,
{4}8,1,2,3/7,
{4}8,1,7,2/6,
{4}4,8,3/7,2/6,
{4}1,8,2,3/7,
{4}5,1-4[4:1],,,
{4}5h[4:3],2,1,8,
{4}4h[4:3],7,8,1,
{4}3h[4:1],4,6h[4:1],5,
{4}2h[4:1],1,7h[4:1],8,
{4}4h[4:3],8,1,2,
{4}5h[4:3],1,8,7,
{2}1^4[4:1],5^8[4:1],
{1}1s5[2:1],
{4}6h[4:3],4,2,8,
{4}3h[4:3],5,7,1,
{4}7h[4:1],6,2h[4:1],3,
{4}6h[4:1],8,3h[4:1],1,
{1}6/5p7[2:1],
{1}3/4q2[2:1],
{1}1^6[2:1]/8^3[2:1],
{4}4/5,2/6,3/7,1b/8b,
{4}2/6h[4:3],3,4,5,
{4}3/7h[4:3],2,1,8,
{1}6h[4:3]/2^5[2:1],
{1}3h[4:3]/7^4[2:1],
{4}1,5/6,1,5/6,
{4}8,3/4,8,3/4,
{4}5,6,7,8,
{4}1-4[8:1],,5h[4:1],2b,
{4}2/7,3,6,4/5,
{4}3/6,7,2,1/8,
{1}7h[4:3]/1>5[2:1],
{1}3h[4:3]/8<4[2:1],
{4}1/2,5/6,1/2,5/6,
{4}7/8,3/4,7/8,3/4,
{4}5,6,7,8,
{4}1-4[8:1],,5h[4:1],2b,
{4}5,6,7,8,
{4}1-4[8:1],,5h[4:1],2b,
{4}1/5,2/6,3/7,4/8,
{4}5^2[4:1],,,2b,
{4}1-4[4:1],,,8b,
{4}2-6[4:1],,,1b,
{4}7,6,5,4,
{4}6,5,6,1b,
{2}1-5[8:1],5-2[8:1],
{2}2-7[8:1],7-4[8:1],
{4}4-8[8:1],,1/8,{1}1^4[4:7]/8^5[4:7],,,
E

MASTER

(150){1}1h[4:31]/8-4[2:3],,
{1}4-7[2:3],,
{1}7-2[2:3],,
{1}2-5[2:3],,
{4}4/5-8[2:3],4,4,4,
{4}4,4,4,4,
{4}4/8,3/7,2/6,1/5,
{4}4/8,1/5,2/6,3/7,
{8}4,4,5,5,3,3,6,6,
{8}2,2,7,7,1,1,8,8,
{16}1,8,2,7,3,6,4,5,4,5,3,6,2,7,1,8,
{32}1,2,3,4,5,6,7,8,1,2,3,4,5,6,7,8,1,2,3,4,5,6,7,8,1,2,3,4,5,6,7,8,
{1}1b/5b,
{8}1/5,3/7,,2/4,,5/7,,1/8,
{8}7/2-5[8:1],2,2/7,,8/5-1[8:1],,5/8,,
{8}2/7-4[8:1],7,2/7,,1/4-8[8:1],,1/4,,
{4}1^6[4:1],6-2[4:1],2^5[8:1],7,
{4}8^3[4:1],3-7[4:1],7^4[8:1],2,
{4}3-8[8:1]/5-8[8:1],3/5,2-5[8:1]/8-5[8:1],2/8,
{4}4-1[8:1]/6-1[8:1],4/6,1-4[8:1]/7-4[8:1],1/7,
{8},3,4,3,6,5,4,3,
{8}7/8,,1/2,,4/5-1[8:1],6,6b,,
{4}6^1[4:1],1^4[4:1],4-8[8:1],1b,
{4}2-6[8:1],4-8[8:1],5-1[8:1],7,
{4}3^8[4:1],8^5[4:1],5-1[8:1],8b,
{2}1s5[4:1],8z4[4:1],
{4}3^8[4:1],8^5[4:1],5-1[8:1],8b,
{4}7-3[8:1],5-1[8:1],4-8[8:1],2,
{4}6^1[4:1],1^4[4:1],4-8[8:1],1b,
{16}7/8,,1/2,,,1,,8,8,,,,2/7,,,,
{8},3h[4:1],4,5,,6h[4:1],5,4,
{8},2h[4:1],4,6,,7h[4:1],5,3,
{8},1h[4:1],4,7,,8h[4:1],5,2,
{8},1>5[8:1],1,1<5[8:1],,1,,,
{8},2-5[8:1],5,6,,7-4[8:1],4,3,
{8},1-6[8:1],5,7,,8-3[8:1],4,2,
{8},1-5[8:1],5-2[8:1],,,,,,
{4}1<5[4:1]/5>1[4:1],1s5[4:1],,,
{4}2p4[2:1],,,8,
{8}8<4[4:1],,,,2<6[4:1],,,5<4[8:13],
{4},4,5,6,
{4}7,8,1,2,
{4}6p8[2:1],,,2,
{2}2^5[4:1],6^3[4:1],
{8}1-5[4:1],,,,3-8[4:1],,,6p1[8:5],
{4},8,7,6,
{4}7q5[2:1],,,1,
{8}1>5[4:1],,,,7>3[4:1],,,4>5[8:13],
{4},5,4,3,
{4}2,1,8,7,
{4}3q1[2:1],,,7,
{2}7<3[4:1],2-6[4:1],
{4}4,4-8[2:1],3,2,
{16}1,,1,,8,,8,,7,6,5,4,3,2,1,8,
{8}7h[4:1]/2-5[8:1],2,2,,8h[4:1]/5-1[8:1],,5,,
{8}2h[4:1]/7-4[8:1],7,7,,1h[4:1]/4-8[8:1],,4,,
{4}1q6[4:1],6q2[4:1],2^5[8:1],7,
{4}8p3[4:1],3p7[4:1],7^4[8:1],2,
{4}3-8[8:1]/7-4[8:1],3/7,2-5[8:1]/6-1[8:1],2/6,
{4}3-8[8:1]/7-4[8:1],3/7,2-5[8:1]/6-1[8:1],2/6,
{8},3,7,4,5/6,4/5,3/4,,
{8}7/8,1,1/2h[4:1],,5-1[8:1],6,6b,,
{8}2-5[8:1]/3-7[8:1],2,2/3,,6-2[8:1]/7-4[8:1],,6/7,,
{8}2-5[8:1]/3-7[8:1],2,2/3,,6-2[8:1]/7-4[8:1],,6/7,,
{4}4p7[4:1],7p3[4:1],3^8[8:1],7,
{4}5q2[4:1],2q6[4:1],6^1[8:1],2,
{4}4-7[8:1]/8-3[8:1],4/8,1-6[8:1]/5-2[8:1],1/5,
{4}4-7[8:1]/8-3[8:1],4/8,1-6[8:1]/5-2[8:1],1/5,
{8},3/7,6/2h[4:1],,3,5,6,,
{8}7/8,1,1/2h[4:1],,5-1[8:1],6,7b,,
{8},3/7,6/2h[4:1],,3,5,6,,
{8}7/8,1,1/2h[4:1],,5-1[8:1],6,7b,,
{8},2,1,2,3/7,,1/5,,
{4}3<7[4:1]/7>3[4:1],,,1b,
{4}2<6[4:1]/6>2[4:1],,,1b,
{4}4<8[4:1]/8>4[4:1],,,1b,
{4}2h[4:1],4h[4:1],6h[4:1],8,
{4}7h[4:1],5h[4:1],3h[4:1],1,
{16}1/5,,3/7,,,4/6,,3,5-1[8:1],,,,8b,,,,
{16}4/8,,2/6,,,3/5,,6,4-8[8:1],,,,1b,,,,
{16}1/5,,3/7,,,4/6,,3,5,,,,1/8,,,,
{4}2q5[2:3]/7p4[2:3],,,{1},,
E

Re:MASTER


名前:
コメント:

タグ:

+ タグ編集
  • タグ:
最終更新:2026年10月04日 09:46