EASY
BASIC
(135){1},,,,
{2}4,4,
{2}5,5,
{2}4,4,
{4}5,,5,4/5,
{4}4,4,4,,
{4}3,3,3,,
{4}2,2,2,,
{1}1h[2:1],
{4}8,8,8,,
{4}7,7,7,,
{4}6,6,6,,
{1}5h[2:1],
{1}4/5,,
{4}5,5,5,,
{4}6,6,6,,
{4}7,7,7,,
{4}8,8,8,,
{1}1-5[4:3],,
{4}8,8,8,,
{4}1,1,1,,
{1}8-4[4:3],,
{4}1,1,1,,
{4}2,2,2,,
{1}3h[2:1]/4h[2:1],
{2}3/4,3/4,
{4}5,5,5,,
{4}4,4,4,,
{1}5h[2:1],
{1}4h[2:1],
{4}5,5,5,,
{4}6,6,6,,
{1}7h[2:1],
{4}1/8,1/8,1b/8b,,
{4}8,8,8,,
{4}7,7,7/8,,
{4}6,6,5,5,
{4}4,4,4/5,,
{4}4,4,4,,
{4}3,3,3/4,,
{4}2,2,1,1,
{4}8,8,1/8,,
{1}1-4[4:3],,
{1}8-5[4:3],,
{1}1-4[4:3],,
{1}8-5[4:3],,
{4}1,1,1,,
{4}2,2,1/2,,
{4}3,3,4,4,
{4}5,5,4/6,,
{4}5,5,5,,
{4}6,6,5/6,,
{4}7,7,8,8,
{4}1,1,2/8,,
{4}8,8,8,,
{4}7,7,7/8,,
{4}6,6,5,5,
{4}4,4,3/5,,
{4}4,4,4,,
{4}3,3,3/4,,
{4}2,2,1,1,
{4}8,8,1/7,,
{1}1-4[4:3],,
{4}5,5,4/6,,
{4}4,4,3/5,,
{4}5,5,4/6,,
{4}4,4,3/5,,
{1}4b/5b,
E
ADVANCED
(135){1}5pp8[4:5],,
{1}1pp4[4:5],,
{2}6h[2:1],5,
{2}6h[2:1],5,
{2}3h[2:1],4,
{2}3h[2:1],4,
{4}6,5,5/6,,
{4}3,4,3/4,,
{4}2,1,8,7,
{4}1/8,1/8,2/7,,
{4}2,1,1/2,,
{4}7,8,7/8,,
{4}6,5,4,3,
{4}4/5,4/5,3/6,,
{4}2,2,1,1,
{4}8,8,7,7,
{4}6,6,5/7,,
{4}3,3,2/4,,
{4}3,3,4,4,
{4}5,5,6,6,
{4}7,7,7/8,,
{4}2,2,1/2,,
{4}3,4,3/4,4/5,
{4}6,5,5/6,4/5,
{1}5-8[2:1],
{1}1-4[2:1],
{4}6,5,5/6,4/5,
{4}3,4,3/4,4/5,
{1}4-1[2:1],
{1}8-5[2:1],
{4}3h[2:1],4,4,,
{4}6h[2:1],5,5,,
{2}4h[2:1],5h[2:1],
{4}4,4/5,3/6,,
{4}7h[2:1],8,8,,
{4}2h[2:1],1,1,,
{2}8h[2:1],1h[2:1],
{4}8,1/8,2/7,2b/7b,
{4}1/2,3/8,7/8,1/6,
{4}1/8,1/8,2/7,1/8,
{4}7/8,1/6,1/2,3/8,
{4}1/8,1/8,2/7,,
{4}5/6,4/7,3/4,2/5,
{4}4/5,4/5,3/6,4/5,
{4}3h[4:1],4,6h[4:1],5,
{4}4/5,4/5,3b/6b,,
{1}3h[1:1],
{1}4h[1:1],
{1}5h[1:1],
{2}6h[2:1],5,
{1}7h[1:1],
{1}8h[1:1],
{1}1h[1:1],
{2}2h[2:1],1,
{4}2/8,3/7,1/7,2/6,
{4}2/8,2/8,1/7,2/8,
{4}1/7,2/6,2/8,3/7,
{4}1/7,2/8,1/7,,
{4}4/6,3/7,3/5,2/6,
{4}4/5,3/6,2/7,1/8,
{4}2h[4:1],1,7h[4:1],8,
{1}6^3[2:1],
{4}3/4,2/5,1/6,7/8,
{4}1/2,1/2,7/8,1/2,
{4}7/8,1/6,2/5,3/4,
{4}4/5,4/5,3/6,,
{4}5/6,4/7,3/8,1/2,
{4}7/8,7/8,1/2,7/8,
{4}1/2,3/8,4/7,5/6,
{4}3/4,3/4,5/6,5/6,
{4}3h[4:1],4,6h[4:1],5,
{4}4/5,4/5,3b/6b,,
{4}6,5,5/6,,
{4}3,4,3/4,,
{4}2,1,8,7,
{4}1/8,1/8,2/7,2/7,
{1}3b/6b,
E
EXPERT
(135){1},,,,
{1}4h[2:1]/5qq3[4:1],
{1}5h[2:1]/4pp6[4:1],
{1}4h[2:1]/5q2[4:1],
{8}5,5,4,4,6,6,4/5,,
{4}3,3/4,6,5/6,
{8}3,,2/4,,5,5,4/5,,
{4}6,5/6,3,3/4,
{8}6,,5/7,,4,4,4/5,,
{4}3,2/4,6,5/7,
{8}3,,2/4,,6,6,5/6,,
{4}3,2/4,6,5/7,
{4}3/4,5/6,2-4[8:1]/7-5[8:1],,
{1}2h[1:1]/7h[2:3],,
{4}4/8h[2:3],5,2,4,
{8}5,5,4,,4,,3/5,,
{8}4/7h[2:1],,5,,4,4,5,,
{8}5/2h[2:1],,4,,5,5,4,,
{4}5/1h[2:3],4,7,5,
{8}4,4,5,,5,,4/6,,
{8}5/2h[2:1],,4,,5,5,4,,
{8}4/7h[2:1],,5,,4,4,5,,
{8}6,6h[4:1],,5,,3/4,,4/7,
{8},5/6,,2/5,,4/6,,4/7,
{8}7/4h[4:1],,5,,3,3,3/4,,
{8}2/5h[4:1],,4,,6,6,5/6,,
{8}3,3h[4:1],,4,,5/6,,2/5,
{8},3/4,,8,8,1,2/7,,
{8}5,5,4,4,6h[4:1],,5,,
{8}2,2,5,5,3/5,3/5,,2h[8:5],
{4},4,4h[2:1],5,
{4}5h[4:1],6q3[8:3],,,
{8}2,2,5,5,4h[4:1],,3,,
{8}7,7,4,4,4/6,6/4h[4:1],,5,
{8}5,3,3,7,7,2,1^4[4:1]/8^5[4:1],,
{8},,,1/8,,2/7,2b/7b,,
{4}2-4[8:1],1-5[8:1],2-4[8:1],7V15[4:1],
{8},,,3,3-8[8:1],,,,
{4}7-5[8:1],8-4[8:1],7-5[8:1],2V84[4:1],
{8},,,6,6-1[8:1],,,,
{4}2-4[8:1],1-5[8:1],2-4[8:1],7V15[4:1],
{8},,,3h[4:1],,4,2/5,,
{8}3/6,3/6,,2h[4:1],,3,3>6[16:5],,
{8},,,,4,4,4/5,,
{4}2/4h[4:3],2,3h[4:1],,
{4}7/5h[4:3],7,6h[4:1],,
{2}4/3h[2:1],6h[2:1],
{2}5h[2:1],4,
{4}3/4h[4:3],2,3h[4:1],,
{4}6/5h[4:3],7,6h[4:1],,
{2}2h[4:1]/4h[4:1],4h[4:1]/6h[4:1],
{4}3^8[4:1]/7^4[4:1],,,2b/7b,
{4}2-5[8:1],1-6[8:1],2-5[8:1],7V15[4:1],
{8},,,4,4-8[8:1],,,,
{4}7-4[8:1],8-3[8:1],7-4[8:1],2V84[4:1],
{8},,,5,5-1[8:1],,,,
{4}2-5[8:1],1-6[8:1],2-5[8:1],7V15[4:1],
{8},,,6/3h[4:1],,4,2/5,,
{8}3/6,3/6,,4/3h[4:1],,2,2<5[16:5],,
{8},,,8h[4:1],,7,7/8,,
{8}1/8,2/7,3b/6b,,7-3[8:1],,2V84[4:1],,
{8},,,3/6,3/6^1[8:1],,,,
{4}2-6[8:1],1-5[8:1],2-6[8:1],7V15[4:1],
{8},,,3/6,6/3^8[8:1],,,,
{4}7-4[8:1],1-5[8:1],8-4[8:1],2,
{8}2/5,5/2h[4:1],,1,,7^4[8:3]/8^3[8:3],,,
{8},,,2/4,2/4,,5/7,5/7h[2:1],
{8},,,8,,1/8,,2h[8:11]/7h[8:9],{1},
{8},,,,4/5,4/5,4/5,,
{4}4/3h[4:1],2,2,1/3,
{4}5/6h[4:1],7,7,6/8,
{4}4/3h[4:1],1,1,2/8,
{8}5/6,,3/4,,2/7,2/7,2-5[8:1]/7-4[8:1],{1},,,
E
MASTER
(135.0){1}5h[2:15],,,,
{4},4,,4,
{4},4,,4,
{4},4,,4,
{8}4,3,2,1,8-5[8:1],1,8,,
{8}3h[8:1],{24}5,,4,6h[8:1],,,4,,5,3h[8:1],,,5,,4,7h[8:1],,,4,,5,
3h[8:1],,,5,,4,6h[8:1],,,4,,5,{8}2h[8:1],5,3/4,4/5,
6h[8:1],{24}4,,5,3h[8:1],,,5,,4,{24}6h[8:1],,,4,,5,2h[8:1],,,5,,4,
6h[8:1],,,4,,5,3h[8:1],,,5,,4,{8}7h[8:1],4,5/6,4/5,
3h[8:1],{24}5,,4,7h[8:1],,,5,,6,3h[8:1],,,5,,4,7h[8:1],,,5,,6,
2h[8:1],,,4,,3,7h[8:1],,,5,,6,{8}3h[8:1],5,3/4,4/5,
6h[8:1],{24}4,,5,2h[8:1],,,4,,3,6h[8:1],,,4,,5,2h[8:1],,,4,,3,
{24}7h[8:1],,,5,,6,2h[8:1],,,4,,3,{8}7h[8:1],5,3/6,4/5,
{1}2h[1:1]/6h[8:9],
{8},,3h[4:1],7h[4:1],,,2h[8:1],6,
{8}2/6,4,3/7,5,2/6,4,3/7,5,
{8}2/6,3/7,4/8,8^5[8:1],5^2[8:1],,,,
{8}2/6,3,1/5,3,2/6,3,1/5,4,
{8}2/6,3,1/5,3,2/6,3,1/5,4,
{8}3/7,5,2/6,4,3/7,5,2/6,4,
{8}3/7,2/6,1/5,1^4[8:1],4^7[8:1],,,,
{8}3/7,6,4/8,6,3/7,6,4/8,5,
{8}3/7,6,4/8,6,3/7,6,4/8,5-7[8:1],
{8}2,5/4-2[8:1],,4/5-8[8:1],,5/4-1[8:1],,4/5^8[8:1],
{8},5/4^1[8:1],,4/5-1[8:1],,4/5,,4,
{8}2/6,3,1/5,3,2/6,3,1/5,4,
{8}2/6,3,1/5,3,2/6,3,1/5,4-2[8:1],
{8}7,4/5-7[8:1],,5/4-1[8:1],,4/5-8[8:1],,4/5,
{8},3/5,,1/8,2/7,3/6,4/5,,
{8}6,5/7,3,4/2^7[8:1],5,6,5,4,
{8}3,2/4,6,5/7,3/6,3/6<3[4:1],,4,
{8},,1,1^4[8:1],,7^2[8:1],,3^6[8:1],
{8},8^3[8:1],,5,,4/5,2/7,,
{8}3,2/4,6,5/7^2[8:1],4,3,4,5,
{8}6,5/7,3,2/4,3/6,3/6,5,1-4[8:1],
{8}8-5[8:1],1,8,4-2[8:1],5-7[8:1],4,5pp2[8:3],2,
{8}2,,,1b,,1/8,7/2-4[8:1],5,
{8}2/7-3[8:1],6,7/2-6[8:1],1,2/7-5[8:1],8,7/2-6[8:1],4,
{8}2/7,1,3,4/5,3/6,1/8,2/7-5[8:1],4,
{8}7/2-6[8:1],3,2/7-3[8:1],8,7/2-4[8:1],1,2/7-3[8:1],5,
{8}2/7,8,6,4/5,3/6,1/8,7/2-4[8:1],5,
{8}2/7-3[8:1],6,7/2-6[8:1],1,2/7-5[8:1],8,2/7,4,
{8}2/7,3^8[8:1],6,5,,1,1,1/2,
{8}3/8,7/4<2[4:1],,8,,5,5,3/6,
{8}8-5[8:1],4-1[8:1],8,4,5,3/7,2b/6b,,
{2}8-5[8:3],1-4[8:3],
{2}8-5[8:3],1-4[8:3],
{2}8-5[8:3],1-4[8:3],
{2}8-5[8:3],1,
{4}1-4[8:3],4,8-5[8:3],5,
{4}1-4[8:3],4,8-5[8:3],5,
{4}1-4[8:3],4,8-5[8:3],5,
{8}1h[4:3],,,,,,7-5[8:1],4,
{8}7/2-6[8:1],3,2/7-3[8:1],8,7/2-8[8:1],1,2/6-4[8:1],7,
{8}2/6,8,6,4/5,3/6,1/8,7/2-4[8:1],5,
{8}2/7-3[8:1],6,7/2-6[8:1],1,2/7-1[8:1],8,7/3-5[8:1],2,
{8}3/7,8,3,4/5,3/6,1/8,2/7-5[8:1],4,
{8}7/2-6[8:1],3,2/7-3[8:1],8,7/2-4[8:1],1,2/7,5,
{8}2/7,6^1[8:1],3,4,,8,8,7/8,
{8}1/6,2/5>7[4:1],,1,,4<2[4:1],3,2,
{8},,,5,5,4,3/6,,
{8}2-5[8:1]/7-4[8:1],3/6,7b/2b-8[8:1],,2/6-2[8:1],7,6/4-1[8:1],3,
{8}4/7,8,3/7,4/5,3/6,1/8,2/7-4[8:1],4,
{8}7/2-6[8:1],1,2/7-1[8:1],8,7/3-7[8:1],2,3/5-8[8:1],6,
{8}2/5,1,2/6,4/5,3/6,1/8,7/2-5[8:1],5,
{8}2/7-3[8:1],8,7/2-8[8:1],1,2/6-2[8:1],7,6/4-1[8:1],3,
{8}4/7,8,3,2/6,,4/8<1[8:3],,1,
{8},,,2/7,4/5,6/3>6[8:3],2/7,8,
{8},,,3/7,,5/1>8[8:3],,8,
{8},,,2/7,1/8,2/7,3/6,4h[8:5]/5h[2:1],
{8},,,,5,4,3b/6b,,
{8}3h[8:1],{24}5,,4,6h[8:1],,,4,,5,3h[8:1],,,5,,4,7h[8:1],,,4,,5,
{24}3h[8:1],,,5,,4,6h[8:1],,,4,,5,{8}2h[8:1],5,3/4,4/5,
6h[8:1],{24}4,,5,3h[8:1],,,5,,4,6h[8:1],,,4,,5,2h[8:1],,,5,,4,
{24}6h[8:1],,,4,,5,3h[8:1],,,5,,4,{8}7h[8:1],4,5/6-3[8:1],4/5,
{1}3b,,
E
Re:MASTER
最終更新:2026年10月03日 08:10