| アーティスト |
ピノキオピー / 初音ミク / ワンダーランズ×ショウタイム 「プロジェクトセカイ カラフルステージ! feat. 初音ミク」 |
BASIC
(137.9)
{1},,,,
1x,1,8,8,1h[1:1],,8h[1:1],,
{2}1,1,1,,2,2,2,,3,3,3,,4,4,45,,5,5,5,,6,6,6,,7,7,7,,8,8,18,,
{1}8-5[4:3],,1-4[4:3],,8-5[4:3],,B4,B5,Ch[1:1],,
{2}1b,1,2,2,3,3,45,,5,5,6,6,7,7,18,,
8b,8,7,7,6,6,45,45,4,4,3,3,2,2,1x/8x,,
1x,2,3,4,5,6,78,78,8x,7,6,5,4,3,2,1,
{1}1b/8b,B1/B8,B2/B7,Ch[1:1],,,,
E
ADVANCED
(137.9)
{1}1-4[2:1],5-8[2:1],{4}1h[4:1]/2h[4:1],,7h[4:1]/8h[4:1],,1x/8x,1x/8x,2x/7x,,
6b,6,5,5,4,4,35,,2,2,1,1,8,8,18,,7,7,8,8,1,1,28,,3,3,4,4,45,45,36,,
7,7,8,,2h[2:1],,1,,7,7,8,,1,1,28,,3,3,4,,6h[2:1],,5,4,3h[2:1],,4,4pq1[2:1],,,,,
2,2,12,,7,7,78,,2,2,12,,8,8,17,,6,6,56,,3,3,34,,6,6,56,,4x/5x,4x/5x,3x/6x,,
{1}2-5[8:3],6-1[8:3],2^5[8:3],6^1[8:3],
{4}2,2,1,1,8,8,{2}17,B7/B8,B5/B6,B3/B4,B1/B2,{4}7x,8,1,2,1-4[2:1]/8-5[2:1],,,,
3b/6b,,7,78,7,78,6,5,4b/6b,,3,34,3,34,2,1,
2b/8b,,7,7,7^4[2:1]/8^3[2:1],,,,2,1,8,7,1-4[2:1]/8-5[2:1],,,,
3b/6b,,2,21,7,78,6,56,4b/7b,,3,34,6,56,7,78,
1b/6b,,2,2,1^6[2:1]/2^5[2:1],,,,7,18,1-4[2:1]/8-5[2:1],,,,4x,5x,
6b,6,5,5,4,4,35,,2,2,1,1,8,8,18,,2b,2,1,1,8,8,71,,6,6,5,5,4,4,45,45,
{1}3b-8[2:1],7-3[2:1],2-6[2:1],{4}7h[2:1],,8,78,
{1}1b/6b,,,,
E
EXPERT
(137.9)
{8}3hx[2:1]/6hx[2:1],,,,,,,4x/5x,4hx[2:1]/5hx[2:1],,,,,,,3x/6x,3x/6x,,,2x/6x,2x/6x,,,3x/5x,3x/5x,,,,45,,45,,
2x/7x,{4},,8b,8b,57,34,1b/8b,1b/8b,24,56,1b/8b,1b/8b,57,{8}45,45,,45,,
2b/7b,{4},,1b,1b,24,56,8b,8b,57,34,8b,{8}1b,1x-5[4:1],,,,,8x,8x,,
7,,6,,4,4,{4}5,24,3,46,5,2,3,45,3,24,24,57,57,
6,45,{8}3,3,{4}4,5/6h[4:1],7-2[4:1],,,38,,4,4/5<3[2:1],,,,1x,
26,2,34,4/5h[1:1],6,4,6,4,47,{8}6,6,{4}5,3h[2:1]/4,2,4,25,34,
45,{8}6,6,5,,3,3,{4}4,26,5,37,2h[4:1],4h[4:1],5h[4:1],7,7x/8x,2x/6x,{8},3x/7x,3x/7x,,
{2}8-4[4:1],2-6[4:1],8^5[4:1],4^1[4:1],{4}8z4[2:1],,,2x,1s5[2:1],,,7x,
{2}6-3[4:1],2-7[4:1],6-3[4:1],1h[2:1],Ch[2:1],,B3/B4/E3,B5/B6/E7,{4}E1,C,E5,B3/B6,{8}8,8,1,1,{2}1-4[8:1]/8-5[8:1],
{8}3b/6b,,,1,{4}17,28,17,5/6<3[4:1],,,{8}2x/8x,,,3,{4}34,56,78,1/2>7[4:1],,,
1x/8x,,34,56,47,1^3[4:1]/8^6[4:1],,,38,45,16,45,37,26,1-5[8:1]/8-4[8:1],,
{8}3b/6b,,,1,{4}16,38,16,3p6[4:1]/8,,,{8}4x/8x,,,7,{4}57,24,57,24,4-1[8:1]/5-8[8:1],,
2b/7b,,12,38,27,1^4[4:1]/8^5[4:1],,,38,45,1^4[4:1]/6h[2:1],,,,4h[4:1]/5h[4:1],,
2x/7x,{8},{4},1b/2b,1b/2b,34,56,7b/8b,7b/8b,56,34,1b/2b,1b/2b,34,{8}57,57,,45,,
2b/7b,{4},,7b/8b,7b/8b,56,34,1b/2b,1b/2b,34,56,7b/8b,7b/8b,56,{8}34,34,,45,,
3b/8b,,,,,,,3x/6x,3hx[2:1]/6hx[2:1],,,,,,,4x/6x,4hx[2:1]/6hx[2:1],,,,,,,3x/7x,{2}3hx[4:3]/7x,8h[4:1],
{1}2x/7x,,,,
E
MASTER
(137.9)
{8}3h[4:3]/6h[4:3],,,,,,,34,2h[4:3]/5h[4:3],,,,,,,56,4h[4:1]/7h[4:1],,,34,2h[4:1]/5h[4:1],,,56,{16}4x/7x,,,2x/5x,,,3x/6x,,{2}4-1[8:1]/5-8[8:1],
{16}2b/7b,,,3,{8}4,5-1[8:1],6,5x/6-8[8:1],,6x,{16}2h[16:3],,,4,{8}3,6-8[8:1],5,5-1[8:1]/6x,,5x,
{16}7h[16:3],,,5,{8}6,4-2[8:1],5,4x/5-1[8:1],,5x,2h[4:1],,4,5,5x-2[8:1]/6x-1[8:1],,5x/6x,,
{16}3b/8b,,,6,{8}5,4-8[8:1],3,3-1[8:1]/4x,,3x,{16}7h[16:3],,,5,{8}6,3-1[8:1],4,3x/4-8[8:1],,4x,
{16}2h[16:3],,,4,{8}3,5-7[8:1],4,4-8[8:1]/5x,,4x,7h[4:1],,5,4,3h[4:1],1b,1b,,
18,2,{16}3h[16:3],,,4h[16:3],,,{8}5,7p3[8:1],8,1,,,{16}2,2h[16:5],{8},3,3,,
47,6,{16}5h[16:3],,,4h[16:3],,,{8}3,2,,1/8-4[8:1],,2,1-5[8:1],,6,6,,
18,7,56,{16}3,4,{8},2,1,8,7^4[8:1],,3,2^5[8:1],,6,7,,
{2}6h[4:1]/7h[4:1],{16}25,,,47,,,{4}3/6qq3[8:5],2h[8:5],,,{8},
81,7,{16}6h[16:3],,,5h[16:3],,,{8}4,2q6[8:1],1,8,,,{16}7,7h[16:5],{8},6,6,,
52,3,{16}4h[16:3],,,5h[16:3],,,{8}6,7,,5pp5[4:1]*qq5[4:1]/8,,,,,46,46,,
15,2,34,{16}6,5,{8},7,8,1,{16}2^5[8:1],,,5,,,7,,7^4[8:1],,,4,,,2,,
{8}18,7,6,{16}4,5,{8},3,2,1,{4}7/8z4[2:1],78,,,
2^5[4:1],,B6,E5/E7,7^4[4:1],,B3,E5/E3,{16}2h[4:3],,,3,,,{8}4,,6,6,,{16}7h[4:3],,,6,,,{8}4,,3,3,,
{4}1>5[4:1],E5,E7,E6/E8,8<4[4:1],E5,E3,E2/E4,
3x/5x,4,5,6,4,4,5,5,{8}2,3,4,5,6,7,18,,34,45,,56,4-1[8:1]/5-8[8:1],,,,
2b/7b,,,,68,1,28,7,68,5,6<3[4:1]/7>3[4:1],,,,,,
2h[4:7]/4b,,,,B5/B6/E6,B7/B8/E8,B1/B2/E2,B3/B4/E4,B5/B6/E6,B7/B8/E8,B1/B2/E2,B3/B4/E4,6<3[4:1],,,,
4b,,,,2-7[8:1]/7-2[8:1],27,2^4[8:1]/7^5[8:1],,,,,B6/B5,B3/B4,8,1,2,
{4}3-5[8:1]/8-5[8:1],38,1-4[8:1]/6-4[8:1],16,{8}25,3,4>5[4:1]/7,6,5,,,,
2b/7b,,,,4/5h[4:1],,{16}4,5,4,,7,8,,6,5,,2,1,,3,4,,4x/5x,,,,
{4}3b/8b,2>7[4:1],7<2[4:1],2>7[4:1],7<2[4:1],2,{16}5,,,6x/8x,,,1x/3x,,
{8}2b/7b,,36,,4-2[8:1]/5-7[8:1],36,4qq4[4:1]/5pp5[4:1],,,,,B7/B8,B1/B2,5,6,7,
{4}3-5[8:1]/8-5[8:1],38,1-4[8:1]/6-4[8:1],16,4h[4:1]/5h[4:1],,E5/Cf,,
{16}3b/8b,,,6,{8}5,4-8[8:1],3,3-1[8:1]/4x,,3x/8x,{16}7h[16:3],,,5,{8}6,3-1[8:1],4,3x/4-8[8:1],,1x/4x,
{16}2h[16:3],,,4,{8}3,5-7[8:1],4,4-8[8:1]/5x,,4x/7x,6h[4:1],,5,4,3x-8[8:1]/4x-7[8:1],,3x/4x,,
{16}1b/6b,,,3,{8}4,5-1[8:1],6,5x/6-8[8:1],,1x/6x,{16}2h[16:3],,,4,{8}3,6-8[8:1],5,5-1[8:1]/6x,,5x/8x,
{16}7h[16:3],,,5,{8}6,4-2[8:1],5,4x/5-1[8:1],,2x/5x,3h[4:1],,4,5,4x-1[8:1]/5x-8[8:1],,4x/5x,,
2hx[4:3]/7hx[4:3],,,,,,,78,1h[4:3]/6h[4:3],,,,,,,12,3h[4:3]/8h[4:3],,,,,,,18,
{4}2h[4:1]/7h[4:1],,45,4qq2[8:1]/5pp7[8:1],
{1},,,,
E
Re:MASTER
最終更新:2022年01月30日 15:56