BASIC
ADVANCED
EXPERT
(211){1},,C,{2},C,{4}8<2[4:5],,,,E6,,E5,,8<2[4:5],,,,E6,,E5,,8<2[4:5],,,,E6,,E5,,8h[1:1],,,,1>5[4:1],,6h[2:1],,{8}5,5,,4,5/3h[4:1],,4,4,,25,,36,,47,4/7h[4:1],,5,5,,1,{16}28,,,37,,,4/6p4[8:5],,{8},3,3h[4:3],,,,,,4x,4x,,5,4/6h[4:1],,5,5,,74,,63,,52,5/2h[4:1],,4,4,,8,{16}17,,,26,,,35,,{8},56,56,,78,,1-6[8:1]/2-5[8:1],,,,,E3/E4,,,E6/E7,,2,2,8,8,1-5[8:1],,6x,,
7h[4:1],,5,5,,45,,24,,1,1,8h[4:1],,{16}E2,E1,E8,E7,E6,E5,{8}E4,,17,17,,8,8,2h[4:1],,4,5/3-6[16:1],,7-4[16:1],,3,,2h[4:1],,4,4,,35,35,,4,4,8,8<4[4:1],,3,2,1,{16}1x,,,2x/4x,,,4x/5x,,,7x/5x,,,{8}8x,8x,1x,,27,,{16}4,5,4,5,{8}3x/6x,,2h[4:1],,4,4,,45,36,2h[4:1]/7h[4:1],,,1,1h[4:1],,{16}E8,E1,E2,E3,E4,E5,{8}E6,,82,82,,1,1,7h[4:1],,5,4/6-3[16:1],,2-5[16:1],,7h[8:5],,,,,5b,,45,45,,7,7,1,1>5[4:1],,6,7,8,{16}8-4[8:1],,,3,,,1,,1-5[8:1],,,6,,,{8}8h[4:1],,1,1,,3b/6b,3b/6b,,,
7/2h[8:15],,,,4,4,,6,,3,,7,,1,,8,{2}8h[2:1],6h[2:1],{4}5h[4:1],3,26,,{8}3/7h[8:15],,,,5,5,,3,,6,,2,,8,,1,{2}1h[2:1],3h[2:1],{4}4h[4:1],5,3/6h[4:1],4>5[1:3],{1}Cf,,,{4},,,4-8[8:1]/5-1[8:1],,,{8},4x/7x,47,47,47,,3x/6x,36,36,36,,,,2x/5x,25,25,25,,{16}46,,,37,,,{8}2h[4:1]/8h[4:1],,,{4}1xh[1:2],4,,4,,4,6x,2x,8xh[4:5],5,,5,,5,{16}4,,,35,,,{8}26,1,1,8,8,2,2,4,4,5,5,7,7,3,3,6h[4:1],,{16}5,,,78,,,12,,,34,,,45,,3h[8:9]/6h[8:9],,{1},{4},E3/E7,4-2[16:1]/5-7[16:1],,{8}1x/8x,1x/8x,2x/7xh[2:1],,{16}E5,E6,E7,E8,{8}E1,,35,35,2xh[2:1]/6x,,{16}E5,E4,E3,E2,{8}E1,,6,6,4,4,8,8,{4}2-5[16:1],7-4[16:1],1-5[16:1],8h[4:1],2,{8}7,7,46,3,3,45,6,6,35,2,2,35,6,6,45,45,3,3h[8:1],1,1h[8:1],8,8h[8:1],6,6h[8:1],{4}4-8[8:1],,1b/7b,2b/6b,{8}45,36,7x/2xh[2:1],,{16}E5,E4,E3,E2,{8}E1,,46,46,3x/7xh[2:1],,{16}E5,E6,E7,E8,{8}E1,,3,3,5,5,1,1,{4}7-4[16:1],2-5[16:1],8-4[16:1],1h[4:1],7,{8}26,3,4,5h[4:1]/7h[4:1],,,57,4,35,6,57,4/8h[4:1],,5,47,,{16}3x/5x,,,1x/2x,,,7x/8x,,,6x/4x,,,{8}3x,3,5,5,2-6[8:1],2,7,,85,,{16}7h[16:3],,,6h[16:3],,,5h[16:3],,,4h[16:3],,,{4}3,1>4[16:1]/2-5[16:1],,{8},4x/6x,4x/6x,,3,3h[4:1],5,5,6h[8:3],4,4,3h[8:3],8,8,7h[8:3],1,1,2,35,,46,,2x/8x,3x/7x,4x/6x,,37,,{16}1,8,1,8,{4}1-5[16:1],7,7,{12}6x,5x,4x,6x,5x,4x,{8}6x,6x,3,3,{16}5h[16:3],,,4,,,{8}36,36,,4/7p2[8:1],,,,1b,,2,2,34,34,,56,,8p3[8:1]/7<4[8:1],,,,,2,2,8,{4}8,56,47,{16}47,,,36,,,{4}2>5[16:1]/5-8[16:1],,{8}1,1,28,28,37,37,46,,8,8,17,17,26,26,3>5[4:6]/5,,{1}Cf,,{4}3h[8:1]/5h[8:1],4h[8:1]/6h[8:1],3h[8:1]/5h[8:1],7h[8:1]/5h[8:1],{16}4x,3x,2x,1x,8x,7x,6x,5x,{1}4xh[4:6],{2},8-4[4:5],,,1-5[16:1],{8}6,6,5,7-3[16:1],,1-4[16:1],,8-5[16:1],,3,3,24,24,,15,,{4}6>3[8:1],1,2<7[8:1],5,6-1[16:1],2-5[16:1],7-4[16:1],3-8[16:1],{8}6h[4:1],,5,5,,8-3[16:1]/7-4[16:1],,,,5x/2xq3[8:5],,Cf,,,,,7h[4:1],,8,8,,56,,3>8[8:1],,5,5,6h[8:5],,{16}E5,E6,E7,E8,E1,E2,{8}E3,,4x/5x,4x/5x,3,3,6,6h[4:1],,8,8h[4:1],,1h[4:1],,3,,5<8[8:1],,,,3,3,8,8-4[16:1],,{4}2-5[16:1],7-3[16:1],,{16}1,8,1,,6,5,6,5,{4}6,34,25,47,{16}8x,7x,6x,5x,4x,3x,2x>1[1:4],1x,8x,,{1}Cf,,,,,E
MASTER
(211)
{1} ,,
{2} 4h[8:1]/5h[8:1],,,45,
{4} 4/6h[4:1],5,45,
{12} 3,,3,4,,4,
{4} 2,1/5h[4:1],2,3h[4:1]/4,4,45,
{12} 6,,6,5,,5,
{8} 7,,56,7x,
{4} ,4/6h[4:1],5,45,
{12} 3,,3,4,,4,
{4} 2,1/5h[4:1],2>7[4:3],
{2} Ch[1:1],,8,27,
{8} 6h[4:1]/8,,1h[8:1],8,28,,2,2-4[8:1]/4,,5,5-8[8:1],,4,,5h[4:1],,7,46,3,5,
{16} 2h[8:1]/4h[8:1],,,2h[8:1]/4h[8:1],,,
{8} 3/5h[4:1],,4,4/5-8[8:1],,5/6h[2:1],,,,1,2,7,6,1h[8:3]/5,,2,2h[16:7],,3,3h[8:1],,14,5/8h[4:1],,1,17,,
{16} 7,8,7,8,1h[8:1]/7h[8:1],,,2h[8:1]/6h[8:1],,,35,,2,4,2,4,1,3,1,3,8,2,8,2,
{8} 8-4[4:5],,3,,,5,,,3,,6,6,6,,45,,2-5[8:1]/7,,
6b,,47,4/7h[4:1],,5<8[8:1],4,4,,2,2h[8:1],1>4[8:1],,8,8,,
57,6,5,46,,3>1[8:1],4,5h[8:3],,8,8-5[8:1],,1,,2,,3/6-2[8:1],,4,4-1[8:1],,8,8,,2-5[8:1],7-4[8:1],2,7,,2,2,,
{16} 1b-4[16:1],,,5b-8[16:1],,,3b-6[16:1],,,7b-2[16:1],,,
{8} 4,4,8,8,1/7h[4:3],,
{16} 2,3,4,5,4,3,2,1,
{8} 8b<5[8:1],,2,2h[4:1],,4>1[8:1],5,5,,7,7h[8:1],8<5[8:1],,1,1,,24,3,4,35,,6-2[8:1],5,4,,4-1[8:1],5,6,,
{16} 8,1,
{8} 2b/7b,,,,,45,,2-6[8:1]/7,,3,4,5-1[8:1],6,7,8-4[8:1],1x,2,3-7[8:1],4x,5,6,7x,8,18,27,36,4-1[8:1]/5-8[8:1],,,,2b/7b,2b/7b,
{4} ,4/5h[4:1],,
{24} 6/E5,E4,E3,
{8} ,,6h[8:3],,5,5,,
{24} 7/E6,E5,E4,
{8} ,
{4} ,3/5h[4:1],4,
{24} 6/E5,E4,E3,
{8} ,,6h[8:3],,5,5,,
{24} 7/E6,E5,E4,
{8} ,
{4} ,4h[4:1]/6,5,
{24} 3/E5,E6,E7,
{8} ,,3h[8:3],,4,4,,
{24} 2/E4,E5,E6,
{8} ,
{4} ,4h[4:1]/6,5,
{24} 3/E5,E6,E7,
{4} ,34,34,45,
{24} 36,5,4,
{1} 3bv6[2:7]/6bv3[2:7],,,,
{2} 3x/6x,
{16} 7,8,7,8,
{8} 7,1b/6,2/5b,3b/6,4/5b,,3/8b,4b/7,3/6b,4b/5,,,,4b/7,3/8b,2b/7,1/8b,,
{16} 5b/7,,,2/4b,,,
{8} 1/8b,1b>8[2:1]/8<1[2:1],,1b/8b,
{4} ,,2-5[8:1],7-3[8:1],4-8[8:1],6<3[8:3],1,
{8} ,5,5,4,
{4} 3-8[8:1],7-4[8:1],1-5[8:1],6q8[8:3],
{8} 1,2,3,4,4,7,7,4,4,6,
{16} 6,5,,3,
{8} 4,2/5-1[8:1],36,4,,28,37,46,,
{16} 5h[8:1]/7h[8:1],,,2h[8:1]/4h[8:1],,,6h[8:1]/8h[8:1],,,1h[8:1]/3h[8:1],,,
{8} 4b/5b,4b/5bw1[47.368421#304:13],
{2} ,,,
{4} 1/8h[4:1],
{24} 7,6,5,4,3,2,
{8} 1/7b-3[8:1],,8,8,
{16} 14,5,6,7,28,3,4,5,
{8} 6/8-4[8:1],8,2,2,
{16} 35,6,7,8,12,3,4,5,
{8} 7-4[8:1],7,8,1,2-6[8:1],2,1,8h[8:1],
{16} 5,4,3,2,18,7,6,5,48,7,6,5,1,8,7,6,25,,3,4,3,4,
{8} 3,25,36,47,
{24} 6,5,6,
{8} 5,4,8-4[8:1],3-8[8:1],8,3,6,6h[4:1],,
{16} 8,7,1,6,2,5,3,4,2<4[8:3],1,3,8,
{8} 2,,,,,1/7b-4[8:1],,3b,,2-4[8:1]/8,,2-6[8:1]/6,,2,
{16} 5,4,3,2,1,8,
{8} 1/7-5[8:1],1,2/7-3[8:1],2,7,
{16} 4,5,6,7,8,1,
{8} 25,6,37,3h[8:3],
{16} 6-1[8:1],5,4-8[8:1],,6,,4,,,,7,8,7,,1h[4:1]/6,,,,8,1,27,,,,
{24} 3h[24:7]/5,4,,2,1,8,7,6,,
{8} 2b/4<2[16:3],,3,3,,
{24} 4/6h[24:7],5,,7,8,1,2,3,,
{8} 5>7[16:3]/7b,,6,6,,
{16} 1h[8:1]/7h[8:1],,,2h[8:1]/4h[8:1],,,5h[8:1]/7h[8:1],,,4h[8:1]/8h[8:1],,,{24}37,26,15,
{8} ,26,26,48,48,
{16} 1,8,1,8,2b/7b,,,,2h[8:1]/4h[8:1],,,3h[8:1]/4h[8:1],,,5h[8:1]/7h[8:1],,,5h[8:1]/6h[8:1],,,
{8} 4,3v6[8:1]/5v2[8:1],2V48[16:3]/6V48[16:3],,,,,
{16} 17,26,35,,,,
{8} 8-4[8:1],4-7[8:1],38,,1-5[8:1],8,1,8-3[8:1],4,8,4-8[8:1],5,4,6,1-6[8:1],6<1[8:1],1b>4[8:1],,5,6,7-3[8:1],,5h[4:1]/7,,
{16} 2,4,2,4,
{8} 1-5[8:1],,17,,3,24,
{12} 1,7,5,1,3,5,
{16} 1,2,3,4,2,3,4,5,1h[8:1],,6,2h[8:1],,7,3h[8:1],,
{8} 8,14,13,12,
{32} 1p4[8:1]*q6[8:1]/2,38,47,56,
{8} ,,,37,
{4} 3/7V51[8:3],2-4[8:1],2-6[8:1],8>7[4:1],58,
{8} ,4,37,26,
{4} 1v4[8:1]/5-8[8:1],15,3-6[16:1]/7-2[16:1],
{16} 3b/7b,,,4b/8b,,,
{8} 2b/6b,,18,,7<4[8:1],5,7-3[8:1],1,7,5-2[8:1]*-8[8:1],,5,,37,,
{16} 2,1,
{8} 2-7[8:1],,4>5[4:3],,5b,,4,4,3,3,3,
{16} 3,4,
{8} 2,1,1,
{16} 7,8,
{8} 7,56,45,34,
{24} 2,3,4,5,,,7,6,5,4,,,1/7h[8:1],2,3,4,,,2h[8:1]/8,7,6,5,,,
{16} 1,6,1,7,
{24} 1z5[4:5],8,1,8,1,8,
{1} 1bs5[1:1],,,
{8} ,,,
{32} 15,26,37,48,1h[8:7]/5b,6,7,8,,2,3,4,5,6,7,8,,2,3,4,5,6,7,8,,2,3,4,5,6,7,8,,2,3,4,
{8} 5/Cf,,,,12,18,7/8V25[4:1],,5V31[16:3],6,7,8h[4:1],,
1,1V74[4:1],,4V68[16:3],3,2,1h[4:1],,
8,17,26,35,4,56,6/7-3[8:1],,78,1,2-5[8:1]*-7[8:1],,2<3[4:1],,Cf,,,
8-4[8:1],,18,,5<1[4:1],,1p3[4:1]/5,2,3,4h[8:3],,2,2<7[8:1],,23,,
1-5[8:1],,18,,4>8[4:1],,4/8q6[4:1],7,6,5h[8:3],,7,7>2[8:1],,67,,
8<2[4:1],,2b,,,,17,57,35,
{4} 1/3-7[8:1],3/4-1[8:1],4>6[4:1]/5,24,
{16} 3,4,5-8[8:1],,,,4,3,2-5[8:1],,,,25,,,,7,3,8,4,1,5,
{24} 2,6,2,6,2,6,15,48,37,26,15,48,
{32} 3b-7[16:1]/7,2,1,8,7,6,5,4,1b>8[8:29]/3b<8[8:29]/Cf,,
{1} ,,,,,,,
Re:MASTER
- Copying from Amakage's live -- Cata_Box (2022-02-10 12:55:46)
- Expaertを追加しました2025/12/21 -- やあきましゅう (2025-12-21 07:53:17)
- EXPERT譜面のLv.表記を変更しました。(12+→13) -- Sugar (2026-01-01 22:58:19)
- MASTER譜面の配置ミスの修正、SLIDEの速度の修正を行いました。 -- けもがみ (2026-02-01 17:45:33)
最終更新:2026年02月01日 17:45