アットウィキロゴ

sølips

アーティスト rintaro soma

BPM BASIC ADVANCED EXPERT MASTER Re:MASTER
199 6 8 13+ 14+ -

EXPERT MASTER Re:MASTER
譜面制作者 はっぴー 7.3GHz -Før The Legends- -

BASIC


ADVANCED


EXPERT

(199){1},,,,1>4[4:3],,1>5[1:1],,1>6[4:5],,1>7[2:3],,1>8[4:7],,{4},1>4[4:3],,,,,,8-4[8:1],

{4}3h[1:1],,5h[2:3],,{8},,3,3,2h[2:3],,,,,,6,6,7h[1:1],,,,,,3,3,4h[8:1],6h[8:1],3h[8:1],5h[8:1],2h[8:1],4h[8:7],,,1h[2:3],,,,,,4,4,3h[2:3],,,,,,1,1,8h[2:3],,,,,,3,3,2h[4:7],,,,,,8,8,7h[8:9],
,,,,,,,,1b,,6,4h[8:3],5,,1,,3,5h[8:3],4,,1,2,3,4h[8:3],5,,1,,3,5h[8:3],4,,8,,6,4h[8:3],5,,1,,3,5h[8:3],,,1,1,1,8-4[8:1],8,3h[2:1],,,,5b,,

{8}6>3[8:1],,2,2h[4:1],,4,4-8[8:1],,3-6[8:1],,7-2[8:1],,1-5[8:1],,6,,7h[4:1],,5,5,,2h[4:1],,4,4-7[8:1],,1-5[8:1],,8h[4:1],,4,,3<6[8:1],,7,7h[4:1],,5,5-1[8:1],,6-3[8:1],,2-7[8:1],,8-4[8:1],,3,,2h[4:1],,4,4,,7h[4:1],,5,5-2[8:1],,8-4[8:1],,1,,1h[4:1],,{1}Ch[1:2],,,{12}1/8,,2/4,,5/7,,1/8,,2/4,,5/7,,{8}1-5[8:1]/8,,6<1[8:1],,4,,5,5,8-4[8:1],,3>8[8:1],,5,,4,4,1-5[8:1],,6<1[8:1],,4,,5,5,4/6,4/6,3/7,3/7,3b/7b,,,,

{16}6,,,5/7,,,5/7,,E5,B4,B3,B2,E2/6,,,5/7,,,5/7,,E5,B4,B3,B2,E2/6V82[4:1],,6,,,,,,3,,,4/2,,,4/2,,E5,B5,B6,B7,E8/3,,,4/2,,,4/2,,E5,B5,B6,B7,{12}E8/1x,2x,3x,4x,5x,6x,{16}6x,,,5/7,,,5/7,,E5,B4,B3,B2,E2/6,,,5/7,,,5/7,,E5,B4,B3,B2,{8}E2/6,6,7,7,8,8,1,1,2,2,3,3,4,4,5,5,6V82[4:1],,2<2[2:13],,

{2},,,,E1,,,,E1,,,,E1,,,4/5,{8}6,5,4,3,3h[4:1],,4,4,,5,5,,6h[4:1],,4,,6,5,4,3,3h[4:1]/5,,4,4,,5,5,,6h[4:1],,4,,6,5,4,3,3h[4:1]/5,,4,4,,5,5/4,,6h[4:1],,4,,6,5,4,3,3h[4:1]/5,,4,4,,5,4/6,3,2/5,,4/7,,{1}8<4[1:1],E1,8<3[4:5],C,8<2[2:3],E5,{8}1V35[8:1]/2v5[8:1],1/2,,,8V64[8:1]/7v4[8:1],8/7,,,1V35[8:1]/2v5[8:1],1/2,,,8V64[8:1]/7v4[8:1],8/7,,,{16}1,2,3,4,5,6,7,8,1,2,3,4,5,6,7,8,{4}1b,,4/5,3-6[8:1]/6,

{16}7-2[8:1],,,,4,,,,3,,3,4,5,,5,,4/6,,7,,1/8,,2,,3/4,,5,,6-3[8:1],,3,,2-7[8:1],,,,5,,,,6,,6,5,4,,4,,5/3,,2,,8/1,,7,,6/5,,4,,3h[4:1],,,,4,3,4,3,4,,6,5,6,5,6,,{8}3>8[8:1],3,5-7[8:1],5,2-4[8:1],2,8,8,1,7,2/6,3,4,5,4/6,3,2/4,5,4/6,7,8-5[8:1],1,2h[4:1],,4-7[8:1],,{16}1-4[8:1],,,,5,,,,6,,6,5,4,,4,,3/5,,2,,1/8,,7,,5/6,,4,,3-6[8:1],,6,,7-2[8:1],,,,4,,,,3,,3,4,5,,5,,{12}5b/6b,,2b/4b,,1b/7b,,4b/3b,,7b/5b,,8b/2b,,{16}7,,7,,5,,4,,4,5,6,7,{8}8,8,2,2,4,5,5,3,1,1,8-4[8:1],8,2,1-5[8:1],1,7,8-4[8:1],8,2,1-5[8:1],1,7,8,8,

{16}1,,1h[8:5],,B5/E5,,,B4/B3,,,E7/B6,,8h[4:3],,,,B4/E5,,,B5/B6,,,E3/B3,,1h[4:1],,,,4x,,,6x,,,7h[8:5],,B4/E5,,,B6/B5,,,E3/B3,,1h[4:3],,,,B5/E5,,,B4/B3,,,E7/B6,,8h[4:1],,,,5x,,,3x,,,
2h[8:5],,B5/E5,,,B3/B4,,,E7/B6,,8h[4:3],,,,B4/E5,,,B5/B6,,,E3/B3,,1h[4:1],,,,4x,,,6x,,,8h[8:5],,E5/B4,,,B6/B5,,,B3/E3,,1h[4:3],,,,E5/B5,,,B3/B4,,,B6/E7,,8h[4:1],,,,5x,,5x,,4x/6x,,,,

{8}7-3[8:1],7,8-5[8:1],8,1-4[8:1],1,2-6[8:1],2,5-8[8:1],5,4,4,3,{16}3,4,5,,{8}5,2-6[8:1],2,1-4[8:1],1,8-5[8:1],8,7-3[8:1],7,4-1[8:1],4,6,6,5,5,2/4,,{16}2,3,4,2,3,4,2,3,4,,1x,,7,6,5,7,6,5,7,6,5,,8x,,2,3,4,2,3,4,2,3,4,5,6,7,8,1,2,3,4,5,6,7,{4}8>8[2:1]*<8[2:1],,,,,{24}1,8,1,8,1,8,1-5[8:1],8,1,8,1,8,{1}1,,{16}3,5,3,5,3,5,3,5,4,6,4,6,4,6,4,6,3,5,3,5,3,5,3,5,4,6,4,6,5-8[8:1],6,4,6,5,E

MASTER

(199){1},,,,
2q5[4:5]/7b,,2q5[4:5]/7p4[4:5],,
2/7p4[4:5],,2q5[4:5]/7p4[4:5],{4},,,36,
{8}2,4,2,3,5,4,6,7,
4,6,3,5,4,{16}7,6,5,,2,3,
45,,,,6h[16:3],,,5h[16:3],,,4h[16:3],,,3h[16:3],,,
5,,5,,{12}2,4,3,7,5,6,{4}1v3[8:1]*s5[8:1],{2}1b,

4>8[99.5#4:1],8-4[99.5#8:1]*<8[99.5#2:1],,
8<4[99.5#4:1],4^2[99.5#8:1]*-8[99.5#8:1],,{8}1,1,8,1,
18,18,,45,{2}4/5<1[99.5#4:1],
1>1[99.5#2:1]*-5[99.5#8:1],,
{8}1>5[99.5#4:1],1,,5,5-1[99.5#8:1]*^7[99.5#8:1],,,,
,,,,8,8,1,8,
18,18,18,18,1h[8:3]/7h[8:3],,,,
{16}2,6,3,5,{8}4-8[132.666666#16:1],,,1b,,,
2-4[132.666666#16:1],,,8-2[132.666666#16:1],,,8-6[132.666666#16:1],,
,4-6[132.666666#16:1],4,,2-4[132.666666#16:1],,,5-1[132.666666#8:1],
,,5^7[132.666666#16:1],3,4,5-1[132.666666#8:1],,,
5^3[132.666666#16:1],7,6,5,7,6,5-3[132.666666#16:1],5-7[132.666666#16:1],
5-2[132.666666#16:1],5-8[132.666666#24:1],5-1[149.25#24:1],5v3[176.888888#3:1]*v6[176.888888#3:1],,,,,
,,4h[8:1]/5h[8:1],,

2/7v8[8:1],,B5/E5,,2v1[8:1],2,B4/E5,,
E7,E6,8/E5,E4,7h[4:1]/E3,E2,Ch[2:3],,
8,8-6[8:1],,8-2[8:1],,8,,3,
3-8[8:1],,,,1,1,18,,
2v1[8:1]/7,,B4/E5,,7v8[8:1],7,B5/E5,,
E3,E4,1/E5,E6,2h[4:1]/E7,E8,Ch[2:3],,
1,1-3[8:1],,1-7[8:1],,1,,6,
6-1[8:1],,,,8,1,2,3,

{1}8<1[4:9]/Ch[4:1],Ch[4:1],{4}Ch[4:1],,,18,
{6}3h[12:1]/C,8h[12:1]/C,2h[12:1]/C,7h[12:1]/C,1h[12:1]/C,6h[12:1]/C,
{8}1-5[8:1]/C,,18,,7-3[8:1],B5/B6,78,,
2-6[8:1],B3/B4,12,,8v5[8:1],B6/B7,58,,
1v4[8:1],B2/B3,14,,8-4[8:1],B6/B7,48,,
1^4[8:1]*^6[8:1],,1,,37,,{16}1,8,1,8,

{32}1b,2,3,4,,,1b,2,3,4,,,1b,2,3,4,8,,,,8,,,,1/8b,7,6,5,,,8b,7,
6,5,,,8b,7,6,5,{16}1,,1,,1,8,1,8,1,8,1,8,
{32}1b,2,3,4,,,2b,3,4,5,,,3b,4,5,6,8,,,,8,,,,1/8b,7,6,5,,,7b,6,
5,4,,,6b,5,4,3,1,,,,1,,,,{12}6,5,7,3,4,2,
{32}1/6b,5,4,,,,1/6b,5,4,,,,1/6b,5,4,,2,,,,2,,,,3b/8,4,5,,,,3b/8,4,
5,,,,3b/8,4,{16}5,7,,7,,1,8,1,8,1,8,1,8,
1h[2560:1],2h[2560:1],8h[2560:1],7h[2560:1],2h[2560:1],3h[2560:1],7h[2560:1],6h[2560:1],3h[2560:1],4h[2560:1],6p3[8:3]*p5[8:3],5h[2560:1],3h[2560:1],4h[2560:1],6h[2560:1],,
,,,,,,,,1-5[8:1]/8-4[8:1],27,36,,{4}1b/8b,

3/6<3[4:29],,,,,B5,B4,,
,,,,,B8,B1,,
,,,,,B5,B4,,
,,,,,B8,B1,,
{8}6h[4:1],4h[4:1],,5h[4:3],3h[1:1],,,,
,,4,,4,3/5h[8:3],,,
4h[4:1],6h[4:1],,3h[4:1],5h[4:1],,4h[4:1],5,
6h[8:3],,,5h[8:3],,,4h[4:1],,
3h[4:1],5h[4:1],,4h[4:3],6h[1:1],,,,
,,5,,5,4h[8:3]/6,,,
5h[4:1],3h[4:1],,6h[4:1],4h[4:1],,6,45,
3,6,45,3,6,45,3,6,

2q5[4:5]/7b,,,6,,7,,,
{1}8h[2:1],2q5[4:5]/7p4[4:5],,
{8}2/7p4[4:5],,,3,,2,,,
{1}1h[2:1],{16}2h[8:1]/4h[8:1],,,,3,3,3,,5h[8:1]/7h[8:1],,,,6,6,6,,
1h[8:1]/3h[8:1],,,,2,2,2,,6h[8:1]/8h[8:1],,,,7,7,7,,
1,2,3,4,5,6,7,8,1b,1b,1b,1b,1bs5[8:1],1b,1b,1b,
{2}1b,4/5s1[8:1]*s1[8:1],

{8}7^4[8:1],,78,,1V35[8:1],5v2[8:1],1,7-3[8:1],
,7,8,7,5-1[8:1],6,3-8[8:1]/5,4,
6-2[8:1],5,3,4,1V74[8:1],4v7[8:1],1,2-6[8:1],
,25,,7,78,{32}18,2,3,4,,,,,18,7,6,5,
{16}2,3,2,3,2,,7,6,7,6,{8}7,56,45,
34,2-5[8:1],4,2,7-4[8:1],4-8[8:1],7,1,
2-6[8:1],,12,,7-2[8:1],3-6[8:1],7,3,
,4v1[8:1]/8-5[8:1],,48,,26,26,,
1-5[8:1],,17,,8V64[8:1],4v7[8:1],8,2-6[8:1],
,2,1,2,4-8[8:1],3,4/6-1[8:1],5,
3-7[8:1],4,6,5,4^7[8:1]/8^3[8:1],48,48,,
{6}4b/8h[12:1],3h[12:1]/7b,2b/6h[12:1],1h[12:1]/5b,4h[12:1]/8b,3b/7b,
{8}2^7[8:1],6,2,5-2[8:1],6,5,1,1-5[8:1],
,18,,7-3[8:1],4,7,5-1[8:1],2,
5/8^5[8:1],,4,3^8[8:1],,7,6^3[8:1],,
2,1^6[8:1],,{16}6,5,4,3,2,1,4b/8b,,,,

2h[8:1]/E6,,,7h[8:1]/B4,,,1/C,,,,,,7h[8:1]/E4,,,2h[8:1]/B5,
,,8/C,,,,,,18,,2,3,4,,7,6,
5h[8:1]/B2,,,4h[8:1]/E8,,,6/E1,,,,,,4h[8:1]/B7,,,5h[8:1]/E2,
,,3/E1,,,,,,47,,47,,6,5,3,2,
1h[8:1]/B6/E6,,,7h[8:1]/B4/E4,,,1/C,,1,,,,7h[8:1]/B3/E4,,,2h[8:1]/B5/E6,
,,8/C,,8,,,,7h[8:1]/E4,,,6h[8:1]/E3,,,1,2,
3h[8:1]/E8,,,2h[8:1]/E7,,,1/B5,,1/E5,,1/B4,,6h[8:1]/E2,,,7h[8:1]/E3,
{8},8/B4,8/E5,8/B5,27,36,1/Cf,,

2b-7[8:1],2,3b-6[8:1],3,4b-1[8:1],4,5b-8[8:1],5,
6b-3[8:1],6,7b-2[8:1],7,1b-5[8:1],1,8b-4[8:1],8,
3b-8[8:1],3,2b-5[8:1],2,4b-7[8:1],4,5b-2[8:1],5,
6b-1[8:1],6,7b-4[8:1],7,8b,8,1b/7b,17,
{16}2,3,4,5,3,4,5,6,4b/7,8,1,2,37,6,5,4,
6,5,4,3,2/5b,1,8,7,26,3,4,5,3,4,5,6h[48:13],
{24}1,2,3,4,5,,7,8,1,2,3,4,7,6,5,4,3,2,1,8,7,6,5,4,
{16}1,3,1,3,1,3,1,3,{24}2b/4,3b/5,4b/6,5b/7,6b/8,7b,8b,1b,2b,3b,4b,7,
6,7,6,7,6,7,6-1[16:1],7,6,7,6,7,

{2}6bz2[12.4375#128:1],,,{16},,,,,6,5,4,
3,3,3,3,3,3,3,3,1,1,1,1,1,1,1,1,
7,7,7,7,7,7,7,7,5h[32:1],5h[32:1],5h[32:1],5h[32:1],5h[32:1],5h[32:1],5h[32:1],5h[32:1],
{1}6h[16:1],,E

Re:MASTER


  • EXPERT譜面を追加しました。修正等ありましたらよろしくお願いします。 -- Sugar (2026-03-03 22:50:50)
名前:
コメント:

タグ:

+ タグ編集
  • タグ:
最終更新:2026年03月03日 22:50