BASIC
(155)
{1}1,,1,,8,,8b,,
1,1,2,2,3,3,4h[4:3]/5h[4:3],,4x/5x,
5,5,6,6,7,7,8,1x/8x,
8-5[4:3],,1-4[4:3],,5-8[4:3],,1,1x/8x,
7h[1:1]/8h[1:1],,5hx[4:1]/6hx[1:1],,3h[1:1]/4h[1:1],,1h[1:1]/2h[1:1],,
{2}1x,1,1,,2,2,2,,3,3,3,,4,4,45,,
{1}B4,E6,B3,B6,B2,B7,B1,Ch[1:1],,
{2}8b,8,7,7,6,6,45,,4,4,3,3,2,2,18,,
{4}1,1,1,,2,,2,,3,3,3,,45,,45,,5,5,5,,6,,6,,7,7,7,,18,,18,,
{1}1b/8b,
{4}8,,8,,7,7,7,,6,,6,,5,5,5,,4,,4,,3,3,3,,2,,2,,18,,,,
{1}Cf[4:5],,,,,,,,,,,,,,
E
ADVANCED
(155)
{1}1>6[4:5],,8<3[1:1],,2p6[2:1],7q3[2:1],{4}1x/2x,,7x/8x,,18,18,2b/7b,,
6,6,5,5,4,4,35,,2,2,1,1,8,8,18,,
7,7,8,8,1,1,28,,3,3,34,5,6,56,4b/7b,8-4[2:1],,,,
3,3,4,4,5,5,6,6,7,7,78,,2,2,12,,
7,7,8,8,1,1,2,2,3,3,34,,5,5,46,,
E5/E6,,E7/E8,,E2,B2,B3,,{1}5-8[2:1],1-4[2:1],
{4}E5/E6,,E7/E8,,E4,E5,E6,,7x/8x,,1x/2x,,8h[2:1],,1,18,
2b,2,3,4,56,56,47,,7,7,6,5,34,34,25,,
2,2,3,4,56,56,47,4,3,34,5,6,56,4b/7b,,
7,7,78,78,2,2,12,12,3,3,4,4,5,5,46,,
3,3,34,34,6,6,56,56,7,7,8,8,1,1,2b/7b,,
3h[4:1]/4h[4:1],,5h[4:1]/6h[4:1],,34,34,25,,{1}1-6[2:1]/2-5[2:1],7-4[2:1]/8-3[2:1],
{4}1hx[4:1]/2hx[4:1],,7h[4:1]/8h[4:1],,12,12,38,,{1}3-8[2:1]/4-7[2:1],{4}16,16,{2}1>7[4:3],,,
{4}7b,78,7,78,6,5,4,3,2,12,2,12,3,4,35,,
6h[4:1],5,56,47,3h[4:1],4,34,25,1,1,8,8,18,18,27,,
3b,34,3,34,2,1,8,7,6,56,6,56,7,8,17,,
2h[4:1],1,12,38,7h[4:1],8,78,16,5,5,4,4,45,36,27,,
Cf,,{8}1hx[8:3],,,8x,{1}8xpp3[1:1]*qq5[1:1],,
{4}3,3,4,4,5,5,46,,6,6,5,5,4,4,35,,2,2,12,8,7,78,1b/6b,,
18,27,36,4h[4:1]/5h[4:1],,
{1}Chf[4:15],,,,,,,,,,,,
E
EXPERT
(155)
{1}3h[1:1],4h[1:1],{2}6h[2:1],5h[2:1],4h[1:1],,
{1}3^6[2:1],2^5[2:1],{2}4hx[4:1]/6hx[4:1],3hx[4:1]/5hx[4:1],{8}1,1,8,,2b/7b,,,,
6,6,{4}57,34,2-4[8:1]/5,1-5[8:1],2,{8}3,3h[4:1],,4x,,25,{4}25,56,4-2[8:1]/7,8-4[8:1],1,35,18,
{8}3,3,{4}24,56,4/7-5[8:1],8-4[8:1],7,{8}3x/5x,3hx[4:1]/5xh[4:1],,,
4h[4:1]/6h[4:1],,,3h[4:1]/5h[4:1],,,4h[4:1]/6h[4:1],,,3h[4:1]/5h[4:1],,,E3,,E7,,
5h[4:1]/7h[4:1],,,2h[4:1]/4h[4:1],,,18,,
7h[2:1],,6,,5,5,46,,2h[2:1],,3,,4,4,35,,6,,57,,8,8,17,,2,,13,,4,4,35,,
2h[2:1],,3,,4,4,53,,7h[2:1],,6,,5,5,64,,{4}78,12,34,56,{16}1x/8x,,,1x/8x,,,{8}2x/7x,2x/7x,,,,
{16}46,,,4x/6x,,,,,35,,,3x/5x,,,,,{1}2z6[2:1]/6,{2}7x^2[4:1],3^6[4:1],8qq1[2:1],,
{16}13,,,1x/3x,,,,,68,,,6x/8x,,,,,{1}3/7s3[2:1],{4}2x^7[4:1],,6^3[4:1],,2hx[4:1],1h[4:1],8h[4:1],7<8[4:3],
{1}Cf,{8}5x/6x,,3x/4x,,12,1h[8:1]/2h[8:1],,3x/8x,,57,57,,4,4,35,,2,2,12,,78,,46,,
3,3,24,,8,8,17,,56,,34,,3x/5x,3hx[4:1]/5hx[4:1],,,
4h[4:1]/6h[4:1],,,3h[4:1]/5h[4:1],,,4h[4:1]/6h[4:1],,,3h[4:1]/5h[4:1],,,26,,1b/8b,,
{4}6<2[8:3],,5,4,3>7[8:3],,4,5,6^3[4:1],,2x^7[4:1],,6x,5-1[4:1]/7,,,
7V53[8:3],,8,1,2V46[8:3],,1,8,7-2[4:1],,3-6[4:1],,7,6/8-4[4:1],,,
{16}35,,,3b/5b,,,,,46,,,4b/6b,,,,,{4}35,46,3h[4:1]/7h[4:1],,
{2}6-4[4:1],2-6[4:1],7pp5[2:1],,
{16}46,,,4b/6b,,,,,35,,,3b/5b,,,,,{4}46,35,2h[4:1]/6h[4:1],,
{2}3-5[4:1],7-3[4:1],{4}1,28,3qq4[2:1]/7qq8[2:1],,,,4b/8b,,
{8}6,6,5,8,3,3,4,1,7,7,5,8,2,2,4,1,7,5,8,1,4,2,8,1,{4}7-4[8:1],3-8[8:1],5,26,
{8}7,8,{4}1/6h[2:1],E5,E4,{8}2,1,{4}3h[2:1]/8,E5,E6,
{8}6x,4,5,3,8,2,7,1,{4}2/6-4[8:1],3-8[8:1],5,26,
{8}7b,7,8,5,2,2,1,4,7,7,5,8,2,2,4,1,7x,5,6,8,4x,2,1,3,{4}7x-3[8:1],4-1[8:1],8,2b/7b,
{8}6,5,{4}4/7h[2:1],E1,E2,{8}3,4,{4}2h[2:1]/5,E1,E8,
{8}7x,8,1,2,3,4,5,6,{1}4qq1[2:1]/5pp8[2:1],
{2}Cf,{16}1x/8x,,,1x/8x,,,2x/7x,,{1}2bpp8[2:1]/7bqq1[2:1],
{8}36,,18,,36,3/6h[4:1],,5x,,47,{4}47,34,2/5-7[8:1],1-5[8:1],8,46,18,
{8}3,3,{4}24,56,4/7-5[8:1],8-4[8:1],7,{8}3x/5x,3hx[4:1]/5hx[4:1],,,
4h[4:1]/6h[4:1],,,3h[4:1]/5h[4:1],,,4h[4:1]/6h[4:1],,,3h[4:1]/5h[4:1],,,B2,,B6,,
5h[4:1]/7h[4:1],,,2h[4:1]/4h[4:1],,,1h[4:1]/8h[4:1],,,,
{1}B2/B3/B6/B7/Chf[4:19],,,,,,,,,,
E
MASTER
(155)
{8}6,5,4,3h[8:5],,,,,6,5,4,3h[8:5],,,,,
6,5,4,3,6,5,4,3,6,5,4,3,6h[2:1],,,,
{4}3^6[2:1],,,8p3[8:5],,,{8},Chf[8:3],,,
{2}B5/B6/E7,B3/B4/E3/Cf,{16}18,,2,4,3,7,5,6,4,5,4,5,4,5,4x,,
3,6,3,6,3,6,3,6,3,6,3,6,3,6,3,6,5,7,5,7,5,7,5,7,1,8,1,8,1,8,
{8}2x/7x,,45,{16}3,4,3,4,3,4,3,4,3,4,3,4,1,8,1,8,1,8,1,8,5,6,5,6,5,6,5,6,
4x,5,4,5,4,5,4,5,2,4,2,4,2,4,2,4,1,8,1,8,1,8,1,8,2,7,2,7,4,5,4,,
2b/7b,,6,5,6,,2b/7b,,3,4,3,,2b/7b,,6,5,6,,2b/7b,,3,4,3,,{4}2-5[8:1]/6-1[8:1],2x/6x,
{16}4x/8x,,,5x/6x,,,1x/5x,,,3x/4x,,,4x/5x,,4x/5x,,
{2}B2/B3/B7/B6/Cf,{16}7h[16:3],,,6h[16:3],,,{8}5,5-1[8:1],,2,2,{16}8h[16:3],,,7h[16:3],,,6,,
{4}6^1[4:1],1^4[4:1],4^7[4:1],7,{8}1,1,8,7,{4}6q3[4:1],3p6[4:1],
5,4,{16}4h[16:3],,,3h[16:3],,,2,,{2}2^4[8:1]/5-1[8:1],{16}8h[16:3],,,7h[16:3],,,6,,
{4}1/6^4[8:1],2^8[8:1]/6,2/7h[4:1],5-1[8:1],{16}5/6x,,,8x,,,4x/6x,,{2}B3/B7/Cf,
{16}1x/8x,,,35,,,46,,3x/7x,,,46,,,35,,{8}2,2,4,3,2,2,12,38,
4h[16:3]/7h[16:3],,47,6,2h[16:3]/5h[16:3],,25,3,
4h[16:3]/5h[16:3],,45,56,4h[16:3]/7h[16:3],,47,38,
{16}1x/2x,,,35,,,46,,7x/8x,,,46,,,35,,{8}2,2,4,3,2,12,38,7,
4h[16:3]/6h[16:3],,46,8,3h[16:3]/5h[16:3],,35,1,{4}2x-5[8:1],2x/6x-1[8:1],3x-6[8:1]/6x,3x/8x<2[8:5],
8b/Cf,,,1>7[8:5],Cf,,,{8}8x,1b/8b,,37,
{16}6,4,6,4,5,3,5,3,4,2,4,2,5,1,5,1,6,2,6,2,7,3,7,3,7,3,7,3,
5,3,5,3,5,3,5,3,6,2,6,2,7,3,7,3,8,4,8,4,8,4,8,4,6,2,6,2,3x/7x,,,,
8x,4,8,4,6h[8:1],,1,5,1,5,3h[8:1],,8,4,8,4,{8}6,1x/7x,1x/7x,{16}4,5,3,6,3,6,2,7,2,7,
{2}1b-5[8:1]/8b-4[8:1],{16}3/6h[16:3],,,5,,,47,,{2}4-8[8:1]/7-5[8:1],{16}1h[16:3],,,2h[16:3],,,3,,
{4}3q8[4:1],8^3[4:1],3^6[4:1],6,{8}7,7,8,1,{2}2-5[8:1]/4-8[8:1],
{8}4x/7x,,56,5,{16}7h[16:3],,,5h[16:3],,,{8}4,3/4-8[8:1],,1,1,{16}3h[16:3],,,4h[16:3],,,5,,
{4}5-1[8:1]/6,7-5[8:1],2-4[8:1],8h[4:1],{16}5x,,,3x/6x,,,1x/4x,,{2}1x-5[8:1]/4x,
{16}6h[16:3],,,5,,,47,,3h[16:3],,,4,,,25,,{8}1,8,7,6,5,4,3,25,
{4}2/5<1[4:1],B6/B7,4>8[4:1],B2/B3,5<1[4:1],1w5[4:1],,,
{16}7h[16:3],,,8,,,16,,2h[16:3],,,1,,,38,,{8}4,5,6,7,8,1,2,3,
{16}6h[16:3],,,5,7,,48,,3h[16:3],,,4,2,,15,,{4}6/8-5[8:1],1>8[4:1]/8,1x/Cf,,
{16}2x/7x,,2x/7x,,3,5,3,5,{2}1b,
{16}3b,5,3,5,3,5,3x,5,1x,8,1x,8,5x,6,5x,6,2x,5,2,5,2,5,2,5,3,6,3x,6,4x,7,4x,7,
2b,1,2,1,2,1,2x,1,3x,8,3x,8,5x-1[8:1],6,5x,6,5x,,,,3x/8x,,,6,4,6,4,,3>7[4:1]/5,,6,,
{4}7q3[4:1],5,{8}6x,7x,8xp2[4:1],3,{4}2q8[4:1],1,{8}2,2,3-1[8:1],4,35,,7-4[8:1],8,17,,2>8[4:1],1,2/8b,,,,3x/7x,{16}4,5,4,5,4,5,
2b,7,2,7,2,7,2,7,4x,5,4x,5,1x,8,1x,8,2x,7,2,7,3,7,3,7,4,7,4,7,5x,7,5x,7,
2b,4,2,4,2,4,2x,4,3x,8,3x,8,1x,6,1x,6,2b,5,2,5,3,5,3,5,4,5,4x,5,3x,6,3x,6,
2b,1,2,1,2,1,2,1,5x,7,5x,7,3x,4,3x,4,8b,7,8,7,8,7,8,7,5,6,5x,6,3x,4,3x,4,
1b,7,5,7,5,7,5,7,1b,7,5,7,5,7,5,7,1x,,1x/8,,3,34,,6,56,,8,1,8,1,8,1,
{2}2hx[2:1]/7b,{16}8b,,,5b/6b,,,3b/4b,,
2,6,5,6,2,6,5,6,2,6,5,6,2,6,5,6,8,6,5,6,8,6,5,6,8,6,5-1[8:1],6,8,6,5b,,
,,28,,3,7,3,7,4,6,4,6,3,5,3,5,2,6,2,6,3,5,3,5,4,7,4,7,1,5,1,5,
2,8,2,8,2,8,2,8,5,6,5,6,3,4,3,4,1,7,1,7,1,7,1,7,2,4,2,4,3,4,3,4,
1b,7,5,7,5,7,2b,6,4,6,4,6,8b,7,5,7,5,7,1b,6,4,7,3,8,{4}1-5[8:1]/2-6[8:1],1b/2b,
{16}4x/7x,,6,56,,3,34,,6,57,,3,24,,{24}18,27,36,
{4}4/5-1[8:1]*-1[8:1],{24}5bpp5[2:17]*qq5[2:17],Cf,
{1},,,,,,,,,,E
Re:MASTER
最終更新:2026年03月30日 21:54