アットウィキロゴ

Strive against fate

アーティスト Noah

BPM BASIC ADVANCED EXPERT MASTER Re:MASTER
209 6 7+ 13 14 -

EXPERT MASTER Re:MASTER
譜面制作者 はっぴー Redarrow -

BASIC


ADVANCED


EXPERT


MASTER

(209)
{4}5h[4:2]/6h[4:2],,,56,4h[4:2]/3h[4:2],,,43,1h[4:2]/8h[4:2],,,18,
4/6h[4:2],B5,8h[4:2],B7,2h[4:2],B1,4h[4:1],B5,
{2}3b-8[8:1]/7b-4[8:1],6-1[8:1]/2-5[8:1],4-1[8:1]/8-5[8:1],{16}2,7,2,7,2,,,,
{2}7-4[8:1]/8-4[8:1],2-5[8:1]/1-5[8:1],{8}47,,3,3,8,8,{16}2,1,2,1,
{1}3V52[8:3]/8z4[8:3],{16}3,4,3,4,2,5,2,5,1,6,1,6,8,7,8,7,{8}1b/6b,,

8,8,7,7,65,,35,4,4,25,3,3,24,,13,2,2,83,1,1,82,,68,7,7,16,8,8,27,,
24,3,3,24,3,3,24,5,46,5,5,46,5,5,46,7,68,7,7,68,7,7,68,1,27,
{16}1,8,1,8,1,8,1hx[16:3],,,2hx[16:3],,,{8}3x,
{4}4x/7x-3[8:1],7/5-1[8:1],8^5[8:1]/5,48,5x/2x-6[8:1],2/4-8[8:1],1^4[8:1]/4,15,
{8}4x/7x,6,5,4,37,6,5-1[8:1],4,{4}5/3-7[8:1],3/6-2[8:1],6/8w4[8:1],8,
{16}4x/3x,2,1,8,4,5,6,7,3,2,1,8,4,5,6,7,{4}3-8[8:1],38,{16}1,7,1,7,{8}26,,

3x-7[8:1]/4x,5,53,5,5/7x-3[8:1],5,57,5,5/3x-8[8:1],5,53,5,
5/8x-3[8:1],5,58,5,5/3x-7[8:1],5,53,5,5/7x-2[8:1],5,57,5,
2x^7[8:1]/6x^3[8:1],,,,1hx[8:1]/5hx[8:1],,37,,
3x/6x-1[8:1],4,46,4,4/1x-6[8:1],4,41,4,4/7x-2[8:1],4,47,4,3/2x-6[8:1],3,32,3,
{16}3,4,3,4,3,4,3,4,2,5,2,5,2,5,2,5,1,6,1,6,1,6,1,6,
{24}1x,2,3,6x,5,4,2x,3,4,7x,6,5,{1}4b/8b,

4h[4:3]/5h[4:3],{2}7-5[8:1]/8-4[8:1],2-4[8:1]/1-5[8:1],
{4}8<4[4:1],4>8[4:1],8-3[8:1]*-5[8:1],,2b/6b,
{16}3-7[8:1],4,3,4,3,,6,8,,7,1,,28,,4,,6-2[8:1],5,6,5,6,,3,1,,2,8,,
71,,5,,3-7[8:1],4,3,4,3,,6,8,,7,1,,{8}2qq4[4:1]/8,,6,6,5,5,45,,
2-6[8:1],2,1-5[8:1],1,8-4[8:1],8,7-3[8:1],7,6-2[8:1],6,5-1[8:1],5,4,4,3b/8b,,
{16}2,1,2,1,3,8,3,8,4,7,4,7,5,6,5,6,4,7,5,6,4,7,5,6,4,5,4,5,36,,,,

1b/7^5[8:1],,3,4,7,,1,,7-3[8:1],,3,,7,,1,,7^4[8:1],,2,3,7,,1,,
7-4[8:1],,4,,7,,1,,7^5[8:1],,3,4,7,,1,,7-3[8:1],,5,,7,,1,,{8}26,26,48,48,1-5[8:1]/5,,15,,
{16}4b/6,,,2/3b,,,7b/8h[8:1],,,,{24}7,6,5,1,2,3,8,,,
{16}1/7b,,,4/5b,,,2b/1h[8:1],,,,{24}2,3,4,8,7,6,1,,,
{16}2/4-8[8:1],,,3,4,,1,,7/5-1[8:1],,,6,5,,8,,27,,,,1,8,1,8,
{32}1,2,3,4,5,6,7,8,1,2,3,4,5,6,7,8,

{2}1/5>6[1:3],,B1,B8,B7,,6z2[4:2],,{8}3,,4,4,,2,,6h[8:9],,5,5,,7,,5,,
3h[8:5],,4,4,,2,,1h[4:1]/8h[4:1],,,{16}2,7,2,7,2^5[8:1],,,,26,,,,
7b,5,6,5,6h[16:1],,3b,5,4,5,4h[16:1],,6b,4,5,4,5h[16:1],,2b,4,3,4,3h[16:1],,
7b,5,6,5,7h[16:1],,3b,5,4,5,3h[16:1],,6b,4,5,4,6h[16:1],,2b,4,3,4,2h[16:1],,
{4}7/8-3[8:1]*-4[8:1],8,2/1-6[8:1]*-5[8:1],1,8/7xw3[8:1],,1/2xw6[8:1],,{1}4b/8b,

4h[4:3]/5h[4:3],{4}3h[4:1]/4,2h[4:1],1h[4:1],8h[4:1],7h[4:1],6h[4:1],5h[4:1],4,
3h[4:1]/5,{16}6,5,6,5,6h[4:1],,,,3,4,3,4,3h[4:1],,,,
6,5,6,5,7h[4:1],,,,3,4,3,4,{1}2V41[4:2]*V46[4:2],
{16}8,7,8,7,1,7,1,7,2,6,2,6,{32}2,3,4,5,6,7,8,1,
{12}2b/Cf,,,,,,B6/E7,,,E2,B1,B8,E8,,,,,,B2/E3,,,E6,B5,B4,E4,,,,,,
{12}B1/B2,,B5/B6,,B4/B3,,{4}B8/B7/Ch[4:2],,,{12}E1,B8,B7,E7,,,,,,B5/E6,,,E5,B4,B3,E3,,,,,,
{4}B1/E2,C,5hx[4:1]/6hx[4:1],,4hx[4:1]/3hx[4:1],,5hx[4:1]/4hx[4:1],,45,2b/7b,

{16}8/2^4[8:1],,6,5,2,,8,,2-6[8:1],,6,,2,,8,,2^5[8:1],,7,6,2,,8,,
2-5[8:1],,5,,2,,8,,2^4[8:1],,6,5,2,,8,,2-6[8:1],,4,,2,,8,,{8}48,48,26,26,1w5[8:1]/5,,1,,
{16}7b,5,6,5,6,5,7h[16:1],,2b,4,3,4,3,4,2h[16:1],,
7b,5,6,4,6,5,7h[16:1],,2b,4,3,5,3,4,2h[16:1],,
7^4[8:1]/8,,78,,{24}78,1,2,3,,,{16}2^5[8:1]/1,,21,,{24}21,8,7,6,,,
{16}1,8,1,8,2,7,2,7,3,6,3,6,{24}4h[4:1],,,5,6,7,

{4}8b-4[8:1],8/2-5[8:1],2/6-2[8:1],1-5[8:1]/6,7-4[8:1]/1,3-7[8:1]/7,8-4[8:1]/3,48,
5/6^1[8:1],61,4/3^8[8:1],38,5-7[8:1]*-8[8:1],5-3[8:1]*-2[8:1],5w1[8:1],5,
{8}7x/1x,72,73,7/4h[4:1],,{16}5,4,3,4,5,,{8}28,27,26,2/5h[4:1],,{16}4,5,6,5,4,,
2,8,1,8,2,8,1,8,3,8,1,8,3,8,1,8,4,8,1,8,4,8,1,8,
{32}4b,5,6,7,8,1,2,3,4,E5,E6,E7,E8,E1,E2,E3,{1}E4/Chf[4:2],

{4}1-5[8:1]/2,1/2-6[8:1],1w5[8:1]/2,1,37,{16}6,5,6,5,7,4,7,4,38,,,,
{4}8-4[8:1]/7,8/7-3[8:1],8w4[8:1]/7,8,62,{16}3,4,3,4,2,5,2,5,61,,,,
{2}7-4[8:1]/8-4[8:1],2-5[8:1]/1-5[8:1],{4}4hx[4:2]/6hx[4:2],,,{16}6,5,6,5,6,5,6,5,
{32}6,7,8,1,2,3,4,5,6/8h[4:1],,,,,,,,,E6,E5,E4,E3,E2,E1,E8,E7/5h[4:1],,,,,,,,
6,7,8,1,2,3,4,5,{4}6/8bw4[8:1],8b,{1}2b/6b,,,,,E

Re:MASTER


  • 追加しました。修正等ありましたらよろしくお願いします。 -- けもがみ (2022-04-07 05:15:11)
  • 1/5>6[8:23],→1/5>6[1:3],に修正しました。 -- けもがみ (2026-02-12 22:58:58)
名前:
コメント:

タグ:

+ タグ編集
  • タグ:
最終更新:2026年04月10日 20:19