BASIC
ADVANCED
EXPERT
(168)
{1},
{4}6h[2:1],,5,4,3h[2:1],,4,5,6h[2:1],,5,4,3h[2:1],,4,45,
{8}6,6h[4:3],,5,,5,,4,3,3h[4:3],,4,,4,,5,6,6h[4:3],,5,,5,,4,3,3h[2:1],,4,,5,5,,
{4}6^3[4:1],,2^7[4:1],,5,18,45,2b/7b,
{8}8,8,1,1,6,6,5,7,2,2,8,8,4,4,5,3h[2:3],,8x,,8x,,1x,,1x,,7x,,8x,8x,,4x/7x,,
{8}2,2,1,1,4,4,5,3,8,8,2,2,6,6,5,7h[2:3],,2x,,2x,,1x,,1x,,2x,,1x,,2b/6b,2b/6b,,
{4}8-4[8:1],2-6[8:1],7-4[8:1],1,{8}1x,2x,3x,4x,5x,6x,7x,8x,
{4}1-5[8:1],7-3[8:1],2-5[8:1],8,{8}8x,7x,6x,5x,4x,3x,2x,1x,
{4}8-4[8:1],2-7[8:1],6-3[8:1],1,{8}1x,2x,3x,4x,5x,6x,7x,8x,
{4}1-5[8:1],7-2[8:1],3-6[8:1],8,{8}8x,7x,6x,5x,4x,3x,2x/6x,,
7,{16}7h[16:3],,,5h[16:3],,,4h[16:3],,,2h[16:3],,,{8}8h[1:1],,6x,,6x,,3x,,3x,
2,{16}2h[16:3],,,4h[16:3],,,5h[16:3],,,7h[16:3],,,{8}1h[8:7],,3x,,3x,,6x,6x,,
7,{16}7h[16:3],,,5h[16:3],,,4h[16:3],,,2h[16:3],,,{4}8h[1:1],6x,6x,3x,3x,
1x/2x,3x/4x,{8}6,{4}6h[4:1],8h[4:1],1h[4:1],3-8[8:1],6x,
{8}7h[1:2],,,,,,,5,5,,,,,4,,2,2h[1:2],,,,,,,4,4,,,,,,5,,
{4}8x,46,1,35,8,46,1,35,8,46,1,35,
{8}7,7,1,1,{2}8w4[4:1],,,{8}4,3,5,6,4,,8b,,
{4}2-5[8:1],6-1[8:1],2-5[8:1],6-1[8:1],2-5[8:1],6-1[8:1],2-6[8:1],8h[4:1],
{8}1,1,,E1,,E8,,E7,,E6,,E5,,46,46,,
{4}7-4[8:1],3-8[8:1],7-4[8:1],3-8[8:1],7-4[8:1],3-8[8:1],7-3[8:1],1h[4:1],
{8}8,8,,E1,,E2,,E3,,6,6,4,{4}4-1[8:1],5<4[2:1],Cf,,,,
{16}5h[16:3]/6,,,4h[16:3],,,3h[16:3],,,2h[16:3],,,1,,,,{8}5,6,4,3,8,7,1,2,
{16}4h[16:3]/3,,,5h[16:3],,,6h[16:3],,,7h[16:3],,,8,,,,{8}4,3,5,6,1,2,8,7,
{16}8h[16:3]/7,,,1h[16:3],,,2h[16:3],,,3h[16:3],,,4,,,,{8}8,7,1,2,5,6,4,3,
{16}1h[16:3]/2,,,8h[16:3],,,7h[16:3],,,6h[16:3],,,5,,,,{8}1,2,8,7,4,3,5,6,
57,{16}5h[8:1]/7h[8:1],,,4h[8:1]/5h[8:1],,,2h[8:1]/4h[8:1],,,1h[8:1]/8h[8:1],,,27,,
{8}27,8,,8,27,1,,1,
42,{16}4h[8:1]/2h[8:1],,,5h[8:1]/4h[8:1],,,7h[8:1]/5h[8:1],,,8h[8:1]/1h[8:1],,,72,,
{8}72,1,,1,2x/8x,3x/7x,4x/6x,,
37,8b,,8b,26,1b,,1b,46,8b,,8b,35,1b,,1b-5[8:1],
,7,8-4[8:1],,,2,1-5[8:1],,,7,8-4[8:1],,,1,1,,
3/6-3[8:1],3-8[8:1]/6,,,,1x/7x,1x/7x,,6/3-6[8:1],6-1[8:1]/3,,,,8x/2x,8x/2x,,
3-8[8:1]/6,3/6-1[8:1],,,,2x/7x,2x/7x,,{16}1b,8b,1b,8b,{8}1b,2x/7x,,45,45,,
{4}3/7-4[8:1],2-5[8:1],8-4[8:1],1-5[8:1],6-3[8:1],2-7[8:1],8h[4:1],1b,
{8}34,25,,56,47,,34,25,,56,4/7h[4:1],,1,1,8,8,
78,16,,12,38,,78,16,,12,38,,{16}4,5,4,5,3,6,{8}3h[8:3],,,
{1}Cf,,,,,,
E
MASTER
(168)
{48}1x/5hx[24:5],,,,,1x,,,1x,,1xs5[8:3],,{4},,,
{1}6<3[4:3],6<3[4:3],6<3[4:3],{4}6<3[8:3],,,45,
{8}6,6h[2:3],,E6,,E5,,E4,,E3,,E2,,E1,,27,
18,7,6,5,4,3,2,18,{16}7,2,7,2,7,2,7,2,8,1,8,1,{24}7,6,5,1,2,3,
{1}4b/8b>7[4:3],{8}1,2,3,4,5w1[8:1],46,5b,,
37,37,{16}8,2,8,2,8,7,6,5,8,1,2,3,46,,46,,7,5,7,5,8,7,6,5,24,,2/4-8[8:1],,
{8}1,3-1[8:1]/4,,3/4-8[8:1],,3-1[8:1]/4,,3/4-8[8:1],,3-1[8:1]/4,,34,4,25,1b/6b,,
82,82,{16}1,7,1,7,1,2,3,4,1,8,7,6,53,,53,,2,4,2,4,1,2,3,4,75,,7/5-1[8:1],,
{8}8,6-8[8:1]/5,,6/5-1[8:1],,6-8[8:1]/5,,6/5-1[8:1],,65,,56,7,18,2b/7b,,
34,3,23,3,34,3,37,3,{16}6,5,7,3,4,2,6,5,7,3,4,2,8,,8,,
{8}46,6,67,6,56,6,16,6,{16}2,4,2,4,3,5,3,5,4,6,4,6,5,7,5,,
{8}3b/8b,3,35,3,23,3,37,3,{16}6,5,7,3,4,2,6,5,7,3,4,2,8,,8,,
{8}46,6,67,6,56,6,16,6,{16}2,4,2,4,3,5,3,5,4,6,4,6,1b,,,,
37,,37,,2,4h[8:1],,3,5h[8:1],,4,6h[8:1],,5,7-5[8:1],,{8}3,7b-1[8:1],4,7b-5[8:1],3,7b-1[8:1],4,7b,
4,4,{16}7,5h[8:1],,6,4h[8:1],,5,3h[8:1],,4,2-4[8:1],,{8}6,2b-8[8:1],5,2b,7-3[8:1],1,3b/7b,,
15,15,{16}2,4h[8:1],,3,5h[8:1],,4,6h[8:1],,5,7-5[8:1],,{8}3,7b-1[8:1],4,7b-5[8:1],3,7b-1[8:1],4,7b-5[8:1],3,
7b-1[8:1],4,7bV58[4:1],3,7,4,4,3-8[8:1],2,7-3[8:1],6,1w5[8:1],8,{32}1b,C,,,,,,,
{8}3b/8b,,,,,,,26,2/6h[8:5],,,,,5h[8:3],,4,4h[1:1],,,,,,,3,{4}3h[2:1],,6,45,
4b/5h[4:11],E6,,E7,,E8,,E1,,E2,,4x,{8}7,7,3,3,6,6,4<3[4:3]/5,,
{1}Cf,{16}5,4,5,4,5,4,5,4,5,4,5,4,3b/6b,,,,
6,5,4,3,6,5,4,3,E8,B8,B1,E2,E6,B5,B4,E4,7,8,1,2,7,8,1,2,E8,B7,B3,E4,5hx[8:11],,,,
{8},{32}8x,7x,6x,,{8},{32}8x,7x,6x,,{8},{32}8x,7x,6x,,{8},{32}8x,7x,6x,,
{8},8b,,36,{16}4,5,4,5,4,5,4,5,
3,4,5,6,3,4,5,6,E2,B1,B8,E8,E4,B4,B5,E6,2,1,8,7,2,1,8,7,E2,B2,B6,E6,4hx[8:9],,,,
{8},{32}1x,2x,3x,,{8},{32}1x,2x,3x,,{8},{32}1x,2x,3x,,{8},1b,
,18,27,36,{4}4/5p4[4:1],4>5[8:5],Cf,,,,
{16}1b,4,3,8,5,6,1,7,3-1[8:1],5,1-5[8:1],8,3,,,,8x,7,6,45,3,2,15,6,7,18,2,3,47,,47,,
{16}8b,5,6,1,4,3,8,2,6-8[8:1],4,8-4[8:1],1,6,,,,1x,2,3,4,56,7,8,1,5,4,3,2,18,7,6,5,
2b,1,3,8,5,6,2,1,3-1[8:1],4,1-5[8:1],8,3,,,,8x,7,6,45,3,2,15,6,7,18,2,3,47,,47,,
{16}8b,5,6,1,4,3,7,8,6-8[8:1],5,8-4[8:1],1,6,,,,1x,2,3,4,58,7,6,5,{32}2,3,4,5,6,7,8,1,{4}2b/6b,
{16}37,,37,,4,6h[8:1],,2,8h[8:1],,3,5h[8:1],,1,{8}7-5[8:1],4,7bV13[8:1],1,7b-5[8:1],5,7bV13[8:1],1,7b,
{16}5,,4x/6x,,5,3h[8:1],,7,1h[8:1],,6,4h[8:1],,8,{8}2-4[8:1],5,2bV86[8:1],8,2b,4w8[8:1],3x/5x,4b,,
2,{32}7bV13[8:1],6,5,,{8}1,7b,4,{32}7bV13[8:1],6,5,,{8}1,7b,4,{32}7bV13[8:1],6,5,,{8}1,7b,4,{32}7b-3[8:1],6,5,,{8}1,7b,
4,56,{32}4b/7b,E8,B8,B1,{8}E2,,34,{32}2b/5b,E2,B1,B8,{8}E8,,56,{32}4b/7b,E8,B8,B1,{8}E2,,34,1b/6b,,
{16}2,1,3V15[16:3],8,{8},5-7[8:1],,8,8,,{16}7,8,6V84[16:3],1,{8},4-2[8:1],,1,1,,
{16}2,1,3V15[16:3],8,{8},5-7[16:1],,8,1/7x,,{16}8b,8b,8b,8b,{8}8b,17,,26,{16}3,5,3,5,
{4}4>8[4:1],8<4[4:1],4>8[4:1],8<4[4:1],4V28[4:1],8V64[4:1],4,8,
{32}1b/7b,6,5,4,{4}1,{32}2b/8b,3,4,5,{4}8,{32}1b/7b,6,5,4,{4}1,{32}2b/8b,3,4,5,{4}8,
{16}7b,8,7b,8,7b,8,7b,,
{32}1b/6b,5,4,3,{4}1,{32}3b/8b,4,5,6,{4}8,{32}1b/6b,5,4,3,{4}1,{32}3b/8b,4,5,6,{4}8,
{16}7,2,7,2,18,18,1/8h[32:11],,,,,,{32}1bs5[4:9]/7b,26,35,
{1}4>6[32:69],,,,,,
E
Re:MASTER
- MASTER譜面のノーツの配置ミス、SLIDEの速度の修正、花火エフェクトの修正を行いました。 -- けもがみ (2026-05-12 06:04:57)
最終更新:2026年05月12日 06:04