アットウィキロゴ

Armageddon

アーティスト LeaF

BPM BASIC ADVANCED EXPERT MASTER Re:MASTER
210 5 8 12+ 13+ -

EXPERT MASTER Re:MASTER
譜面制作者 はっぴー 翠楼屋 -

BASIC


ADVANCED


EXPERT

(210)
{1}B2/B3/B6/B7/Chf[1:1],{8},,,,,,,1x/8x,
1x/8x,,,36,,36,{16}4,5,4,5,{8}4,36,,27,,27,{16}1,8,1,8,
{1}1^4[2:1]*p4[2:1],{8},,,27,,27,{16}8,1,8,1,
{1}8v6[2:1]*V25[2:1],{8}47,47,,25,,{16}3,4,3,4,3,4,
{1}3v2[2:1]*V51[2:1],{8}25,25,,47,,{16}6,5,6,5,6,5,
{8}6,,7h[8:3],,,5h[8:3],,,4h[8:3],,,2,,,{16}1,8,1,8,
{4}1,27,3,4,5,6,7,8-4[8:1],2,1-5[8:1],7,8-4[8:1],2,1h[4:1],8b,,
E4,E5,E6,E7,E8/C,E1,E2,E3,E4/C,E5,E6,E7,{16}1x,8x,1x,8x,1x,8x,1x,8x,1x,8x,1x,8x,1x,,,,
{8}3,3h[8:1],5,5h[8:1],4,4h[8:1],6,6h[8:1],5,5h[8:1],4,4h[8:1],3,3h[8:1],5,,
6,6h[8:1],4,4h[8:1],5,5h[8:1],3,3h[8:1],4,4h[8:1],5,5h[8:1],6,6h[8:1],4,,
2,2h[8:1],5,5h[8:1],3,3h[8:1],6,6h[8:1],4,4h[8:1],3,3h[8:1],2,2h[8:1],5,,
7,7h[8:1],4,4h[8:1],6,6h[8:1],3,3h[8:1],5,5,5,5,5,5,5,5,
3,3h[8:1],5,5h[8:1],4,4h[8:1],6,6h[8:1],2,2h[8:1],3,3h[8:1],4,4h[8:1],5,,
6,6h[8:1],4,4h[8:1],5,5h[8:1],3,3h[8:1],7,7h[8:1],6,6h[8:1],5,5h[8:1],4,,
2,2h[8:1],5,5h[8:1],3,3h[8:1],6,6h[8:1],1,1h[8:1],3,3h[8:1],4,4h[8:1],5,,
7,7h[8:1],4,4h[8:1],6,6h[8:1],3,3h[8:1],8,8,8,8,8,8,8,8,
{6}1x,2,3,4x,5,6,78,78,78,56,56,56,{4}2/4h[4:1],3,5h[4:1]/7,6,34,3h[4:1]/4>8[4:1],,4b,
7/5h[4:1],6,4h[4:1]/2,3,65,6h[4:1]/5<1[4:1],,5,4,3,2,1q8[2:1],,,,1b,
2/4h[4:1],3,5h[4:1]/6,7,E4/E5/B4,E6/E7/B6,E1/E2/B1,8x,5h[4:1]/7,6,3/4h[4:1],2,34,3h[4:1]/4>8[4:1],,4b,
7/5h[4:1],6,4h[4:1]/3,2,E5/E6/B5,E4/E3/B3,E1/E8/B8,1x,4h[4:1]/2,3,6/5h[4:1],7>6[1:1],,,,,
{2}Cf,{6}1,2,34,1,2,34,1,2,34,6,5,34,1,2,34,1,2,34,{1}1V35[4:1]*V75[4:1],
{6}8,7,65,8,7,65,8,7,65,3,4,65,8,7,65,3h[12:1]/5h[12:1],3h[12:1]/5h[12:1],3h[12:1]/5h[12:1],4h[12:1]/6h[12:1],4h[12:1]/6h[12:1],4h[12:1]/6h[12:1],
{8}3,3,5,5,4,4,6,6,{16}2h[16:3],,,3h[16:3],,,4,,5h[16:3],,,6h[16:3],,,7,,
{8}1,1,8,8,2,2,7,7,{4}4/6h[4:1],3,3h[4:1]/5,6,
{8}7,7,4,4,6,6,5,5,{16}7h[16:3],,,6h[16:3],,,5,,4h[16:3],,,3h[16:3],,,2,,
{8}8-4[8:1],8,3,,1-5[8:1],1,6,,{6}47,47,36,25,25,36,
3h[3:1]/6h[3:1],,,18,24,57,18,24,57,1b/8b,,,
{24}E2,B2,B3,E4,,,{4},,,{24}E8,B7,B6,E6,,,{4},,,{24}E4,B3,B2,E2,,,{4},,,{24}E6,B6,B7,E8,,,{4},1,,{1}1^4[2:1],5<4[4:3],
Chf[2:1],{16}18,,,18,,,{8}18,,46,46,,{1}3V58[2:1]/7h[4:3],{16}78,,,78,,,{8}78,,35,35,,
{1}2V85[2:1]/6h[4:3],{16}56,,,45,,,{8}34,,25,25,,{1}1h[4:3]/6V83[2:1],{8}3h[4:1]/4h[4:1],,,4h[4:1]/5h[4:1],,,56,,
{4}4/7V15[4:3],4,4,4,3,3,34,34,5/2V84[4:3],5,5,5,6,6,65,65,
4/7V51[4:3],4,4,4,3,3,34,34,2V48[4:3]/5,5,6,6,6,,1s5[4:13],,
{1}Chf[1:3],,,{8},,,,1x/8x,1x/8x,1x^4[8:1]/8x^5[8:1],,
{2},3b/6b,{8}8,1,{4}2-5[8:1],1^6[8:1],3,2h[4:1],4,{16}35,,,35,,,26,,{4}2h[4:1]/6,4-8[8:1],3,3,
{8}1,8,{4}7-4[8:1],8^3[8:1],6,{8}7,7,5,5,4,4,2,2,{4}18,23,45,67,{16}1,8,1,8,1,8,1,8,1,7,1,7,1,8,1,8,
{4}1b-5[8:1],6,47,25,{8}1,8,{4}7-4[8:1],8^3[8:1],6,7h[4:1],5,{16}46,,,46,,,37,,{4}3/7h[4:1],5-1[8:1],6,6,
{8}8,1,{4}2-5[8:1],1^6[8:1],3,{8}2,2,4,4,5,5,7,7,{4}18,67,45,23,{16}8,1,8,1,8,1,8,1,8,2,8,2,8,1,8,1,
{4}8b-4[8:1],3-6[8:1],7-2[8:1],4,5,6-1[8:1],2-5[8:1],7,8h[4:1],1,{16}45,,,36,,,27,,{4}2h[4:1]/7,4-8[8:1],3,3,
{8}8,8,2,2,4,4,3,3,6,6,5,5,7,7,1,1,{16}8x,7x,6x,5x,4x,3x,2x,1x,8x,7x,6x,5x,4x,3x,2x,1x,{8}8x/Cf,,,1x/8x,1x-5[8:1]/8x-4[8:1],,,,
{1}B2/B3/B6/B7/Cf,,,,,,,,,,,,
E

MASTER

(210)
{96}E1,E2/E8,E3/E7,E4/E6,Cf,E5,,,,,,,{8},,,,,,{16}4x,5x,
{8}4hx[1:1],,,,,,,5x,5hx[4:1],,4x,4x,,3x/6x,{16}5x,4x,5x,4x,{8}5x,5hx[4:1],,4hx[4:1],,{16}6x,3x,6x,3x,6x,3x,
{2}Cf,,,{8},5x/6x,5x/6x,5x/6x,{2}B4/B5/B6/B7/E5/E6/E7/Cf,,,{8},3x/4x,3x/4x,3x/4x,
{2}B5/B4/B3/B2/E5/E4/E3/Cf,,,{8},4x/5x,4x/5x,4x/5x,{1}B3/B4/B5/B6/E3/E4/E5/E6/E7/Cf,{8}3h[4:1]/5h[4:1],,,2h[4:1]/6h[4:1],,,{16}1x,7x,1x,7x,
{4}1b,26,{8}3,3,5,4,6,7,8,1,2,3,{4}4/5-8[8:1],2-5[8:1],7-4[8:1],{8}3,3h[4:1],,4,{4}25,4^2[8:1]/7^5[8:1],4-1[4:11]*-8[4:11]/7,,
{1},,,{16}1,8,1,8,1,8,1,8,2,7,2,7,2,7,2,7,
{8}3x/6x,,2h[8:1],4h[8:1],2h[8:1],4h[8:1],2h[8:1],4h[8:1],1h[8:1],4h[8:1],3h[8:1],4h[8:1],2h[8:1],4h[8:1],3,3,
6h[8:1],5h[8:1],6h[8:1],5h[8:1],7h[8:1],5h[8:1],7h[8:1],5h[8:1],6h[8:1],5h[8:1],8h[8:1],5h[8:1],7h[8:1],5h[8:1],8,8,
2h[8:1],1h[8:1],2h[8:1],1h[8:1],3h[8:1],1h[8:1],3h[8:1],1h[8:1],2h[8:1],1h[8:1],4h[8:1],1h[8:1],3h[8:1],1h[8:1],4,4,
8h[8:1],4h[8:1],8h[8:1],4h[8:1],6h[8:1],2h[8:1],6h[8:1],2,{16}1x,7x,1x,7x,1x,7x,1x,7x,2x,8x,2x,8x,2x,8x,2x,8x,
{8}1b,,8,7,6h[4:1],8,1,2,3h[4:1],4,5,6,7h[4:1],5,4,3,
2h[4:1],1,8,7,6h[4:1],8,1,2,3h[8:1],5h[8:1],4h[8:1],6h[8:1],5h[8:1],7h[8:1],5h[8:1],7,
4b/8b,,1,2,3h[4:1],1,8,7,6h[4:1],5,4,3,2h[4:1],4,5,6,
7h[4:1],8,1,2,3h[4:1],1,8,7,{16}1,5,1,5,1,5,1,5,3,7,3,7,3,7,3,7,
{1}Cf,{12}8x,4,6,1,5,3,8,4,6,2pp5[2:1],,,
{4}8,7,6h[4:1],5p4[2:1],6,7,8-4[8:1],4bpp7[2:1],
2,1,8h[4:1],7qq3[2:1],8,1,2h[4:1],3pp6[2:1],1,8,7,16,{16}2,3,4,5,7,6,5,4,1,2,3,4,5bqq2[2:1]/6x,,,,
{4}7,8,1h[4:1],2pp6[2:1],1,8,7,6pp2[2:1],5,4,3,2V84[8:3],6,7,8-4[8:1],4bpp7[2:1],
2,1,8,7pp3[2:1],5,4,3,2qq5[2:1],5,6,7h[2:1],5<4[2:1],,,Chf[2:1],,
,,{6}2/7h[4:1],8,6,5h[4:1]/7,6,4,3h[4:1]/5,4,2,
3b/8b,,,2h[4:1]/7,1,3,2/4h[4:1],3,5,4/6h[4:1],5,7,
B1/B5/Cf,,,8-5[12:1],1,2,3-8[12:1]/7,4,5,2/6-3[12:1],7,8,
1-6[12:1]/5,2,3,47,{12}6,4,5,,2x,2,4,4,3,3,7x,7,5,5,6,6,
1h[4:1],,,{16}E1,E8,E7,E6,2,3,4,5,8,7,6,5,1,2,3,4,E1,E8,E7,E6,2,3,4,5,1,8,7,6,
{4}Cf,18,{16}2,1,2,1,3,8,3,8,4h[4:1],,,,7,8,7,8,6h[4:1],,,,3,4,3,4,
{4}2-6[8:1],,7h[4:1],{16}E1,E2,E3,E4,8,7,6,5,2,3,4,5,1,8,7,6,2,3,4,5,
E8,B7,B6,E6,E3,B2,B1,E1,E6,B5,B4,E4,Ch[4:1],,,,{12}8x,8x,8x,8x,8x,8x,1x,1x,1x,1x,1x,1x,
{6}2b/8b,,,7b/5x,3b/5x,1b/3x,7b/1x,5b/7x,3b/5x,8b/Cf,,,
{1}2x/7hx[1:2],{24}E7,E6,E5,,,,{4},,,
3h[1:3],,,,{24}B3,E4,,{8},,,{24}B6,E6,,{8},,,{24}B5,B4,,,,,{4},,,Chf[1:1],,,,
1b,,,,{16}6,5,,5,{8}7,7,1,1,25,36,{4}4b/7h[4:3],,,4,{16}3,4,,25,,36,,47,,6,5,,47,,38,,
{4}1b/2hx[4:3],,,{8}5,5,{16}3,4,,6,{8}5,47,36,2,{16}1w5[2:1],8,1,8,{1}1b,{8}4h[4:1]/6h[4:1],,,3h[4:1]/7h[4:1],,,{16}2,8,2,8,
{4}2b,37,{8}5,5,4,3,E7,E6,E4,E3,1,1,2,,
38,,16,,3,3,5,6,E3,E4,E6,E7,8,8,7,,
15,,24,,3,3,5,4,5,4,3,2,8,7,{4}4-1[8:1]/6,7-4[8:1],2-5[8:1],{8}6,6h[4:1],,5,{4}47,2^4[8:1]/5^7[8:1],2/5-1[4:11]*-8[4:11],,
{1},,,{16}8,1,8,1,7,2,7,2,8,1,8,1,7,2,7,2,
{2}Chf[2:1],{32}1b,2x,3x,4x,5x,6x,7x,8x,1x,2x,3x,4x,5x,6x,7x,8x,
{8}1x,,7-3[8:1],7,2^4[8:1],2,5^8[8:1],5,
{4}1-4[8:1]*-6[8:1],1,{6}3h[12:1]/7h[12:1],5h[12:1]/6h[12:1],3h[12:1]/4h[12:1],{4}1^4[8:1]/5^8[8:1],1/5p4[4:1],Cf,,
{8}28,3,2-5[8:1]/4,1,6-1[8:1],7,1,2,3-6[8:1],7-4[8:1],3>5[4:1],7,3,,,,
37,37,4,4,26,26,5,5,{16}3,4,3,4,2,5,2,5,4,7,4,7,5,6,5,6,
{8}4b-8[8:1],4,7^4[8:1],7,1^4[8:1],1,6x,6,7-3[8:1],7,2-5[8:1],2,8^5[8:1],8,4^1[8:1],4,
{4}8-3[8:1]*-5[8:1],8,{6}2h[12:1]/6h[12:1],3h[12:1]/4h[12:1],5h[12:1]/6h[12:1],{4}4^1[8:1]/8^5[8:1],4q5[4:1]/8,Cf,,
{8}28,3,2-5[8:1]/4,1,6-1[8:1],7,1,2,3-6[8:1],7-4[8:1],3>5[4:1],7,3,,,,
47,47,6,6,25,25,3,3,{16}6,4,6,4,5,2,5,2,8,4,8,4,6,2,6,2,
5-1[8:1],,5,,4,,4,,8,7,6,5,3,2,1,8,6-2[8:1],,6,,5,,5,,1,8,7,6,4,3,2,1,
{4}7/8w4[8:1],8,{6}2h[12:1]/6h[12:1],7h[12:1]/8h[12:1],1h[12:1]/2h[12:1],{4}3^8[8:1]/7^4[8:1],37,B4/B8/Cf,,
{8}7-5[8:1],2-4[8:1],7,2,7-3[8:1],2-8[8:1],7,2,4-8[8:1],2-5[8:1],4,2,7-4[8:1],1,7,2,
{16}3,5,3,5,4,7,4,7,1,5,1,5,2,8,2,8,
{32}2b,3,4,5,6,7,8,1,2,3,4,5,6,7,8,1,
2/Cf,E3,E4,E5,E6,E7,E8,E1,E2,E3,E4,E5,E6,E7,E8,E1,
{1}Cf,,,,,,,,,,,,
E

Re:MASTER




  • Level change to 13+ now (Version BUDDiES) -- Dai (2023-12-12 10:32:29)
名前:
コメント:

タグ:

+ タグ編集
  • タグ:
最終更新:2026年03月25日 18:32