| アーティスト |
Mastermind(xi+nora2r) |
BASIC
ADVANCED
EXPERT
(192)
{1}4b>5[4:9]/5b,,,,
{8}3/6h[1:1],,,5,5,,,,3h[1:1],,,4,4,,,,
6h[1:2],,,5,5,,,,{1}2hx[1:1],,{4},,3x/6x,{16}4x,5x,4x,5x,
{8}4b,,,3hx[8:3],,,5h[8:3],,,4h[8:3],,,6,,56,,
4x/7x,,5/6h[8:3],,,4h[8:3],,,5h[8:3],,,3h[4:1],,4,34,,
3,3,{4}5,4h[4:1]/6h[4:1],,{8}7,7,{4}5,4h[4:1]/6h[4:1],,
{8}3x/5x,3x/5x,,,4x/6x,4x/6x,{4},7h[4:1],5h[4:1],4h[4:1],2x,
18,27,{8}3,3,5,5,4,4,6,6,5,5,7,7,47,,56,,6,6,4,4,5,5,3,3,4,4,2,2,
{4}2/6h[4:1],8h[4:1],1h[4:1],3,{8}8,8,2,2,6,6,{1}3/5w1[2:1],
{4}3x/7x,{16}6x,5x,6x,5x,6x,,3x,4x,3x,4x,3x,,2b/5b,,,,
{8}6,,4/8h[4:1],,5,5,46,,3,,5/1h[4:1],,4,4,53,,
6,,4/8h[4:1],,5,5,{4}46,35,18,46,46,
{8}7^2[4:1],,3,3,3h[4:1],,4,,2^7[4:1]/5,,6,6,6h[4:1],,5,,
7,7,5,6,3,3,4,2,25,,47,,1x/8x,1x/8x,2x/7x,,
3/6h[4:1],,5,,7,7,78,,16,,34,25,16,,1/6h[4:1],,
5,,34,,2,2,12,,78,,56,47,38,,1b,,
24,,56,,78,16,2/5h[4:1],,4,,34,,12,38,47,,
8,8,1,7,3,3,5,4,3x/5x,,{12}6x,6x,5x,{8}4x/7x,3x/8x,1x<3[1:2]/2x,,
{1}Cf,,2h[2:1],3h[2:1],2<4[4:7]/4,,8h[1:1],4z8[4:3],
7h[1:2],{2}C,B3,2h[1:2],,C,B6,{1}8h[1:1],7h[1:1],6h[1:1],{4}5h[2:1],,4,35,
{8}2,2,4,4,3,3,5,5,4,4,6,6,5,5,56,,7,7,5,5,6,6,4,4,5,5,3,3,4,4,24,,
5,5,4,4,6,5,7h[4:1],,4,4,5,5,3,4,2h[4:1],,5,5,35,,4,4,46,,57,,24,,18,27,3/6-3[1:6],,
{1}4b,{2}2,2,{4}1,1,1,1,1,1,1,1,{8}8,8,8,8,8,8,8,8,8,8,8,8,8,8,8,8,{4}8-4[8:1],8x`Cf,,,,,,45,
{8}1b/6b,,78,6,5,4,{4}3-7[8:1],4b-8[8:1],2b-6[8:1],1b-5[8:1],3b,
{8}1b/6b,,78,6,5,4,{4}3-7[8:1],4b-8[8:1],2b-6[8:1],7b,1x/5x,
38,{8}12,3,4,5,6,7,{2}1b-5[8:1]/8b-4[8:1],{16}27,,6,5,6,,3,4,
3,,2,1,2,,12,,{16}1x/2hx[16:3],,,4hx[16:3],,,5hx[16:3],,,7hx[16:3],,,8x,,,1x/6x,,,{8}2,2,4,
5-1[8:1],,3b,,2,2,{4}2-6[8:1],1-5[8:1],8-4[8:1],7-3[8:1],22x,
1x/5x,{8}34,3^6[8:1]/4,,7hx[4:1],,8x,{6}7b/8b,5x/6x,2x/4x,1b/8b,5x/7x,3x/4x,
{16}2b/5b,,,,3,4,3,,6,5,6,,7,8,7,,1b/6b,,,,6,5,6,,3,4,3,,2,1,2,,
{8}3b/8b,,1,1,18,18,27,36,{4}4-8[8:1]/5-1[8:1],,2x/7x,3b^8[4:1]/6b,
4,4,{8}1x,1,{4}2/6^1[4:1],3,3,{8}8x,8,{4}2^7[4:1]/7,6,6,{8}1x,1,{4}2/8p4[4:1],3,3,25,1q6[4:1],
7,7,{8}78,78,{4}1q6[4:1]/6,7,7,{8}78,78,{4}1/6-1[8:1],2b,3-8[8:1]/8,7b,1-5[8:1]/5,5b,6,{8}78,16,2x/5x,,
4b/8b,,12,3,4,6,{4}7-3[8:1],8b-4[8:1],6b-2[8:1],5b-1[8:1],8b,
{8}4x/7x,,3x/5x,3x/5x,2,1,8,7,{6}1b/6b,2x/4x,5x/6x,2b/8b,5x/7x,3x/4x,
{8}2b/5b,,1-5[8:1],1,7-3[8:1],7,2,2,1b/4b,,6-2[8:1],6,4-8[8:1],4,7,7,
1b,1,1,1,{16}1b,8,1,8,1,8,1,8,{4}2x-6[8:1],5-1[8:1],4-8[8:1],7w3[8:1],,
{1}1bpp4[4:7]/5bpp8[4:7],,,,,
E
MASTER
(192)
{24}27,36,4/5h[12:11],,,,{4},,,4,,6,5,3h[2:1],,4h[2:1],,5h[2:1],,6,,
{8}6h[8:3],,,5,56,,,,3h[8:3],,,4,34,,,,6h[8:3],,,5,56,,,,
{1}3>4[4:7]/7,{24}B1,B2,,,,,{4},,,,,{16}4,5,3,6,2,7,1,8,
{8}1hx[4:1],,,2h[4:1]/4h[4:1],,,3h[4:1]/5h[4:1],,,4-6[8:1]/6h[4:1],,,7-4[8:1],,4,,
3x/5x,,4h[4:1]/6h[4:1],,,3h[4:1]/5h[4:1],,,4h[4:1]/6h[4:1],,,3h[4:1]/5h[4:1],,,26,,
3,3,{4}24,5-3[8:1]/7-5[8:1],,{8}6,6,{4}57,24,45,
{8}6,5,46,,3,4,{4}35,46,35,{24}B7,B6,B5,B4,B3,B2,,,,,,,
{4}1x-5[8:1]/8x,18,{8}6h[4:1],5,4h[4:1],5,7h[4:1],6,5h[4:1],6,8h[4:1],7,6h[4:1],7,
8-4[8:1],,18,,{8}3h[4:1],4,5h[4:1],4,2h[4:1],3,4h[4:1],3,1h[4:1],2,3h[4:1],2,
{4}1-5[8:1],7-3[8:1],2-6[8:1],8,{8}57,6,24,3,45,36,2>8[2:1]/7<1[2:1],18,
{4},,,18,{16}7b,5,6b,5,8b,,2b,4,3b,4,1b,,2x/7x,,,,
{4}4x/5x,4x,{16}4x/E1,E8,E7,E6,{4}4x,4x,{16}4x/E6,E7,E8,E1,4x/E2,E3,,,{4}4x,
5x/4x,5x,{16}5x/E1,E2,E3,E4,{4}5x,5x,{16}5x/E4,E3,E2,E1,5x/E8,E7,,,{4}5x,
4x/5x,4x,{16}4x/E1,E8,E7,E6,{4}4x,4x,{16}4x/E6,E7,E8,E1,4x/E2,E3,,,{4}4x,
{8}45,6,57,6,45,3,24,3,45,{16}6,5,7,,3,4,{4}2,1x/8x<3[4:1],
2b,2,{16}1h[16:3],,,8,{8}1,7,7h[4:1],,{12}5,5,6,{4}4,1>6[4:1]/5,
7,7,{16}8h[16:3],,,1,{8}8,2,2h[4:1],,{12}4,4,3,{4}5-8[8:1],4b,
{8}12,2,25,2,28,2,24,2,27,7,57,7,78,7,37,,
{16}6,4,6,4,5,3,5,3,6,4,5,3,6,4,5,3,{12}C,,,3x/6x,3x/6x,3x/6x,{8}3x/6x,2x/7x,1x-5[8:1]/8x,,
{32}1b>1[4:11]/5b,Cf,,,,,,,{4},,,{1},,,2q7[4:5]/Ch[1:3],,7p6[4:5],,
7V53[1:1],3V15[1:1],5V37[1:1],7V51[1:1],1V37[1:1],7V51[1:1],1z5[4:3],{2}4h[2:1],{16}5,4,5,4,3b/6b,,,,
{8}2x/5x,3,4,5,36,4,5,6,47,5,6,7,5/8-6[8:1],5,8,,
7x/4x,6,5,4,63,5,4,3,52,4,3,2,4/1-3[8:1],4,1,,
B8/E8,5,6,5,7-5[8:1],5,7,,B1/E2,4,3,4,2-4[8:1],4,2,,
B7/E7,5,6,5,B8/E1,5,6,5,B6/E6,,B3/E4,,45,18,,,
5x,6,7,8,1,2,3,4,5,6,7,8,1,2,3,4,{12}5x,6,7,8,1,2,3,4,5,6,7,8,{16}1x,2,3,4,5,6,7,8,1,2,3,4,5,6,7,8,{24}1x,2,3,4,5,6,7,8,1,2,3,4,5,6,7,8,1,2,3,4,5,6,7,8,{32}1hx[1280:1],2h,3h,4h,5h,6h,7h,8h,1h,2h,3h,4h,5h,6h,7h,8h,1h,2h,3h,4h,5h,6h,7h,8h,1h,2h,3h,4h,5h,6h,7h,8h,
{4}1xw5[8:1],{32}1b,B1,Cf,B4/B5/B6,,,,,{4},,,,,1b/8b,
{8}7-1[8:1],2-4[8:1],7V51[4:1],2,7,3,{4}2-6[8:1],2x/4-8[8:1],4x/1^4[8:1]*^6[8:1],1xw5[8:1],1x,
{8}2-8[8:1],7-5[8:1],2V48[4:1],7,2,6,{4}7-3[8:1],2-6[8:1]/7x,2x/8w4[8:1],8x,2b/6b,
{8}7-1[8:1],2-4[8:1],7V51[4:1],2,7,1,{4}2-6[8:1],2-5[8:1]/7-1[8:1],27,{16}48,,6,5,6,,4,,
45,,3,4,2,,6,5,8hx[8:1],,,2hx[8:1]/4hx[8:1],,,5hx[8:1]/7hx[8:1],,,1hx[8:1]/3hx[8:1],,,6hx[8:1]/8hx[8:1],,,4hx[8:1]/5hx[8:1],,,{8}18,27,36,
{4}4-1[8:1]/5-8[8:1],4b/5b,{16}27,,6,5,8,,3,4,{4}1-6[8:1],1-4[8:1]/7-3[8:1],17,16,
{8}6h[8:1],{32}8x,1,2,3,{8}4,7h[8:1],{32}1x,2,3,4,{8}5,8h[8:1],{32}2x,3,4,5,{6}6x/7b,1x/8x,2x/4x,5x/7b,1x/8x,4x/5x,
{16}2b/7b,,,,7,5,7,5,6,4,6,4,7,5,6,4,7b,,,,2,4,2,4,3,5,3,5,2,4,3,5,
{8}2b,,45,45,36,36,27,27,{16}8,1,8,1,8,1,8,1,{32}E8,E7,E6,E5,E4,E3,E2,E1,{4}Cf,
1hx[8:1]/8x,1h[8:1]/7p2[4:1],1h[8:1],1h[8:1],3pp7[2:1]/1h[8:1],1h[8:1],1h[8:1],1h[8:1],
8h[8:1]/1,8h[8:1]/2q7[8:3],8h[8:1],8h[8:1],6qq2[8:3]/8h[8:1],8h[8:1],8h[8:1],8h[8:1],
1h[8:1]/8-4[8:1],1h[8:1]/8,3-7[8:1]/1h[8:1],1h[8:1]/3,1h[8:1]/6-2[8:1],1h[8:1]/6,1h[8:1]/4-8[8:1],1h[8:1]/4,
{16}2x/7x,,6,5,7h[8:1],,3,4,2h[8:1],,6,5,7h[8:1],,3,4,1h[8:1],,6,5,8h[8:1],,3,4,{8}2,18,2b/7b,,
6-4[8:1],3-1[8:1],6V84[4:1],3,6,2,{4}3-7[8:1],3-8[8:1]/6-4[8:1],36,15,37,
{8}3h[8:1],{32}1x,8,7,6,{8}5,2h[8:1],{32}8x,7,6,5,{8}4,1h[8:1],{32}7x,6,5,4,{6}2b/3x,1x/8x,5x/7x,2b/4x,1x/8x,4x/5x,
{16}2b/7b,,,,6,1,7,8,6,1,7,8,6,1,7,8,6b,,,,3,8,2,1,3,8,2,1,3h[8:1],,5,4,
6,5,7,4,8,3,1,2,4,3,5,2,6,1,7,8,7,6,5,4,1,2,3,4,{32}7,6,5,4,3,2,1,8,
{4}7xv4[8:1]/3xv8[8:1],3x/7x,{24}1bp7[4:7]/5bp3[4:7],26,37,
{1}48,,,,,
E
Re:MASTER
最終更新:2026年04月01日 18:52