アットウィキロゴ

Love's Theme of BADASS ~バッド・アス 愛のテーマ~

アーティスト Hommarju

BPM BASIC ADVANCED EXPERT MASTER Re:MASTER
202 6 8 13 14 -

EXPERT MASTER Re:MASTER
譜面制作者 はっぴー Jack -

BASIC


ADVANCED


EXPERT


MASTER

(202){4},,,{32},
2b,Cf,,,7b,Cf,,,1b,Cf,,,8b,Cf,,,2b,Cf,,,7b,Cf,,,
{64}1b,B1,Cf,B5,,,,,,,,,,,{4},,,,,
8b/Chf[8:13],8,8,8,8,8,8,8,8,8,8,8,8,8,8^5[8:1]/3,82,
1b/Chf[8:13],1,1,1,1,1,1,1,1,1,1,1,1,1,1^4[8:1]/5,16,
{8}7b/Chf[8:13],7x,7x,7x,7x,7x,7x,7x,7x,7x,7x,7x,7x,7x,7x,7x,
7x,7x,7x,7x,7x,7x,7x,7x,7x,7x,7x,7x,7x/5,7x,7x/4,7x,
2b/Chf[8:13],2x,2x,2x,2x,2x,2x,2x,2x,2x,2x,2x,2x,2x,2x,2x,
1x,1x,1x,1x,8x,8x,8x,8x,{16}2x,3x,4x,5x,8x,7x,6x,5x,1x,2x,3x,4x,7x,6x,5x,4x,

{8}1b,,3h[4:1]/7,,4,2/5-7[8:1],,1-5[8:1],,8h[4:1],,1,8-4[8:1],8,Cf,,
6h[4:1]/2,,5h[4:1],,6,7/4-2[8:1],,8-4[8:1],,1h[4:1],,8,1,1,28,28,
3/7h[4:1],,6h[4:1],,5,4/6-4[8:1],,2-6[8:1],,8h[4:1],,1,8,8,71,71,
6/2h[4:1],,3h[4:1],,4,5/3-5[8:1],,7-3[8:1],,1h[4:1],,8,27,36,4x/5x,,
1^4[8:1]/8^5[8:1],,1b/8b,,27,2-7[8:1]/7,,6-3[8:1],,1h[4:1],,8,17,2,35,6,
5/7h[4:1],,3V52[4:1],,5,7-3[8:1],,1-5[8:1],,8h[4:1],,1,82,7,64,3,
4/2h[4:1],,6V47[4:1],,4b,2-6[8:1],,8-4[8:1],,1h[4:1],,8,27,27,36,36,
4^1[8:1]/5^8[8:1],,45,,27,27,,45,
{24}1x,2x,3x,4x,5x,6x,7x,8x,1x,2x,3x,4x,5x,6x,7x,8x,1x,2x,3x,4x,5x,6x,7x,8x,

{8}1x/5x,1s5[16:3]/5x,,1b/8b,,,E3/B3/Cf/B7/E7,,1h[8:1]/2h[8:1],,
7h[8:1]/8h[8:1],,2h[8:1]/3h[8:1],,7h[8:1]/8h[8:1],,
3/4^7[8:1],,1,1b-5[8:1],,8,8,8,
5h[8:1]/7h[8:1],,3h[8:1]/4h[8:1],,5h[8:1]/7h[8:1],,1h[8:1]/2h[8:1],,
57,8,1,2bq7[4:1]/4,,8,8,8,1h[4:1],,8,1,27,3^1[8:1]/6^8[8:1],45,3b/6b,,
E1/B1/B8/Cf,,36,36,,
1-5[8:1]/8-6[8:1],,8-4[8:1]/1-3[8:1],,1-5[8:1]/8-6[8:1],,8-4[8:1]/1-3[8:1],,1b/8b,,
5x/6x,5x/6x,5x/6x,4b/8b,,
26,3,4,6h[8:1]/5h[8:1],,3h[8:1]/4h[8:1],,7h[8:1]/6h[8:1],,3h[8:1]/4h[8:1],,
7/8^3[8:1],,5,5b-1[8:1],,3,3,3,
2h[8:1]/4h[8:1],,7h[8:1]/8h[8:1],,2h[8:1]/4h[8:1],,5h[8:1]/6h[8:1],,
24,1,8,5/7-3[8:1],,1,1,1,2-4[8:1],7-5[8:1],2,7,1-5[8:1],8-4[8:1],1,8,,
3b,2b,1b,8b,7b,6b,5b,4b-8[8:1]/Cf,,4bw8[8:1]/Cf,,{32}B4,Cf,B8,,,,,,{4},

1x/7x<3[4:1],3x>7[4:1],Cf,,8x/2x>6[4:1],6x<2[4:1],Cf,,{8}3x/4x,2x/5x,,5x/6x,4x/7x,,
{4}1x-5[8:1]/8x,1b/7-3[8:1],7b/1w5[8:1],{32}B1,Cf,B5,,,,,,{4},
E4/B4/B5/E6,Chf[4:1],E1/B1/B8/B2/B7/E3/E7,,
E4/B4/B5/E6,Chf[4:1],E1/B1/B8/B2/B7/E3/E7,,
3x-1[8:1]/4x-8[8:1],,6x-8[8:1]/5x-1[8:1],,E4/B4/B5/E6,Chf[4:1],E1/B1/B8/B2/B7/E3/E7,,
2x/6x,1v4[8:1]/7v4[8:1],1x/7x,35,2x/6x,1v4[8:1]/7v4[8:1],1x/7x,35,
8-5[8:1]*q5[8:1],,1^4[8:1]*-4[8:1],,6b/7b,2b/3b,8bz4[8:1]*-5[8:1]/1b,,
2x-4[8:1]*-8[8:1],2x-6[8:1],Cf,,7x-5[8:1]*-1[8:1],7x-3[8:1],Cf,,
4-2[8:1]/5-1[8:1],,5-7[8:1]/4-8[8:1],,{8}4qq1[16:9]/5pp8[16:9],,,Cf,,,,,
{4}1hx[4:7]/8hx[4:7],,,,,,,,

1b-5[8:1]/8hx[8:1],1b-3[8:1]/8hx[8:1],1b-5[8:1]/8hx[8:1],1b-3[8:1]/8hx[8:1],
1b-5[8:1]/8hx[8:1],1b-3[8:1]/8hx[8:1],1b-5[8:1]/6hx[8:1],1b-3[8:1]/6hx[8:1],
1b-5[8:1]/8hx[8:1],1b-3[8:1]/8hx[8:1],1b-5[8:1]/8hx[8:1],1b-3[8:1]/8hx[8:1],
1b-5[8:1]/8hx[8:1],1b-3[8:1]/8hx[8:1],1b-5[8:1]/8hx[8:1],1b-7[8:1]/8hx[8:1],
1b-5[8:1]/6hx[8:1],1b-7[8:1]/6hx[8:1],1b-5[8:1]/6hx[8:1],1b-7[8:1]/6hx[8:1],
1b-5[8:1]/6hx[8:1],1b^7[8:1]/6hx[8:1],1b^3[8:1]/6hx[8:1],1b-7[8:1]/6hx[8:1],
1b-3[8:1]/5hx[8:1],1b-7[8:1]/5hx[8:1],1b-3[8:1]/5hx[8:1],1b-7[8:1]/5hx[8:1],
1b-3[8:1]/5hx[8:1],1b-7[8:1]/5hx[8:1],1b-5[8:1]/6hx[8:1],1b-3[8:1]/6hx[8:1],
1b-5[8:1]/8hx[8:1],1b-3[8:1]/8hx[8:1],1b-5[8:1]/8hx[8:1],1b-3[8:1]/8hx[8:1],
1b-5[8:1]/8hx[8:1],1b-3[8:1]/8hx[8:1],1b-5[8:1]/8hx[8:1],1b-7[8:1]/8hx[8:1],
1b-5[8:1]/6hx[8:1],1b-7[8:1]/6hx[8:1],1b-5[8:1]/6hx[8:1],1b-7[8:1]/6hx[8:1],
1b-5[8:1]/6hx[8:1],1b^7[8:1]/6hx[8:1],1b^3[8:1]/6hx[8:1],1b-7[8:1]/6hx[8:1],
1b-3[8:1]/5hx[8:1],1b-7[8:1]/5hx[8:1],1b-3[8:1]/5hx[8:1],1b-7[8:1]/5hx[8:1],
1b-3[8:1]/5hx[8:1],1b-7[8:1]/5hx[8:1],1b-5[8:1]/6hx[8:1],1b-3[8:1]/6hx[8:1],
1b-5[8:1]/8hx[8:1],1b-3[8:1]/8hx[8:1],1b-5[8:1]/8hx[8:1],1b-3[8:1]/8hx[8:1],
1b-5[8:1]/8hx[8:1],1b-3[8:1]/8hx[8:1],1b-5[8:1]/8hx[8:1],1b-7[8:1]/8hx[8:1],
1b-5[8:1]/6hx[8:1],1b-7[8:1]/6hx[8:1],1b-5[8:1]/6hx[8:1],1b-7[8:1]/6hx[8:1],
1b-5[8:1]/6hx[8:1],1b^7[8:1]/6hx[8:1],1b^3[8:1]/6hx[8:1],1b-7[8:1]/6hx[8:1],
1b-3[8:1]/5hx[8:1],1b-7[8:1]/5hx[8:1],1b-3[8:1]/5hx[8:1],1b-7[8:1]/5hx[8:1],
1b-3[8:1]/5hx[8:1],1b-7[8:1]/5hx[8:1],1b-5[8:1]/6hx[8:1],1b-3[8:1]/6hx[8:1],
1b-5[8:1]/8hx[8:1],1b-3[8:1]/8hx[8:1],1b-5[8:1]/8hx[8:1],1b-3[8:1]/8hx[8:1],
1b-5[8:1]/8hx[8:1],1b-3[8:1]/8hx[8:1],1b-5[8:1]/8hx[8:1],1b-7[8:1]/8hx[8:1],
1b-5[8:1]/6hx[8:1],1b-7[8:1]/6hx[8:1],1b-5[8:1]/6hx[8:1],1b/6hx[8:1],
7b-3[8:1]/8b-4[8:1],Cf,2b-6[8:1]/1b-5[8:1],Cf,B1/B2/B3/B4/B5/B6/B7/B8/Cf,

,,,,,,{4}1b,{12},,1,8,2,7,3,6,,4hx[6:1]/5hx[6:1],,,6,5,4,3,,,
5,4,6,3,7,2,8,1hx[6:1]/8h[6:1],,,1/8,,2,3,4,7,6,5,,,
3,4,3,4,2,1b/2b,,,,78,78,,,6x,5x,6x,5x,7x,,3,4,2v4[3:2]*<6[3:2],{1},{16},
{96}3b,,,,,,,,,,,2b,,,,,,,,,,,1b,,,,,,,,,,,8b,,,,,,,,,,,7b,,,,,,,,,,,6b,,,,,,,,,,,{12},,
4,5,4,5,4,,36,,27,,1,8,1,8,{48}1,,,,,27,,,{12},3,5,,5,4,6,
2,5,2,5,4,7,4,7,1/8,,,,45,45,,2,1,2,7h[6:1],,8,7,,,36,,24,,57,,18,18,,,,
{48}2-6[12:1],,,,,2,,,,,7-3[12:1],,,,,7,,,,,1-5[12:1],,,,,1,,,,,8,,,,,8b,{8},,,
{24}3b/6b,2x,1x,8x,7x,6x,5x,4x,3x,2b,1x,8x,7b,6x,5x,4x,3x,2x,1x,8x,7x,
6xw2[8:1],5x,4x,3x,2x,1x,{48}B6,Cf,{1}B2,,,,E

Re:MASTER


  • 追加しました。修正等ありましたらよろしくお願いします。 -- けもがみ (2022-05-15 01:43:02)
  • ノーツの配置ミス、SLIDEの速度の修正を行いました。 -- けもがみ (2026-02-18 18:34:01)
名前:
コメント:

タグ:

+ タグ編集
  • タグ:
最終更新:2026年04月11日 19:37