BASIC
ADVANCED
EXPERT
(185)
{8}4,4,5,5,4,4,4x/5x,,
{1}2b^5[4:5]/7h[1:2],,{2}5,5,4,45,
3h[8:3]/4h[8:5],,{4}4,4,35,,{1}4h[8:3]/6h[8:5],{4}46,46,37,,
{8}3h[1:1]/6,,,4,,4,,5,5h[1:1],,,3,,3,,4,
4h[1:1],,,5,,5,,6,6h[1:1],,,5,,5,,3,
{4}3hx[4:3],,4,4,2x/6hx[4:3],,5,5,4h[4:1]/7h[4:1],,2h[4:1]/5h[4:1],,B3,B6,C,1b/8b,
{8}2,2,4,4,3,,56,56,56,,47,,34,,25,,
7,7,5,5,6,,34,34,34,,12,,38,,38,,
2,2,4,4,3,,56,56,56,,47,,34,,25,,
3,3,4,4,{4}2h[4:1],1<3[2:1],,,1b,,
{8}2,12,,28,,34,,56,6,47,,25,,78,,12,
2,38,,16,,56,,34,3,25,,18,,47,4b/7b,,
3,34,,26,,47,,12,2,38,,16,,35,,78,
{4}7hx[4:1]/8hx[4:1],,1hx[4:1]/2hx[4:1],,3h[4:1],4h[4:1],5,35,
4hx[4:1]/6h[4:1],,5,46,5h[4:1]/7h[4:1],,6,57,
2h[4:1]/4hx[4:1],,3,24,3h[4:1]/6h[4:1],,45,36,
2h[4:1]/7b,4,3b/6h[4:1],5,3h[4:1]/7b,4,2b/6h[4:1],5,
8,8,{8}17,17,17,17,{4}2b/6b,,,4x/5x,
{8}2hx[4:1]/7hx[4:1],,,27,27,,{4}3p6[2:1],5h[2:1],,,4/5s1[2:1],3h[2:1],,,2z6[2:1]/8,7h[2:1],,,5x/6x,
{8}4,4,{4}5,2b/6b,1>6[2:1]/7,8h[2:1],,,5x/7x,
{8}4h[4:1]/6h[4:1],,,46,46,,{4}3-5[8:1]/5,,7x,7x,4x/7x,
{8}3h[4:1]/8h[4:1],,,38,38,,{4}4>7[2:1]/7,6h[2:1],,,5/6s2[2:1],4h[2:1],,,18,{8}3h[4:1]/6h[4:1],,,36,{6}3x/6x,5x/6x,4x/5x,
{4}3x/4x,1b,2x/5x,3>6[2:1],4h[2:1],,,56,{8}4h[4:1]/7h[4:1],,,47,{4}47,56,45,24,18,5x/7x,
{2}4h[4:1]/5h[4:1],3h[4:1]/4h[4:1],4h[4:1]/5h[4:1],3h[4:1]/6h[4:1],
{8}2,2,7,7,{16}1,8,1,8,1,8,1,8,{4}2hx[4:3],,,1b,
{16}35,,,56,,,{8}7,7,8,1,2,{16}35,,,56,,,{8}7,78,16,2-5[8:1]/5,,
{4}8,4/7-4[8:1],1,2-6[8:1]/5,8,{8}7x/8x,16,25,,3b/7b,,
{16}64,,,43,,,{8}2,2,1,8,7,{16}64,,,43,,,{8}2,21,83,47,,
{4}5h[8:1]/6h[8:1],4h[8:1]/7h[8:1],3h[8:1]/4h[8:1],2h[8:1]/5h[8:1],1-5[8:1]/6,8-4[8:1],3b,2x/6x,
{16}71,,,12,,,{8}3,3,4,5,6,{16}71,,,12,,,{8}3,34,52,6-1[8:1]/1,,
{4}4,8/3-8[8:1],5,1-4[8:1]/6-1[8:1],,{8}3x/8x,3x/8x,3x/8x,,1b/6b,,
{16}35,,,56,,,{8}7,78,1,2,3,{16}35,,,56,,,{8}7,78,16,2x/5x,,
{16}3x,4x,3x,4x,{4}3x,2x-8[8:1]/5x,6-4[8:1],2bz6[4:1],,,8b,
{4}1x/7hx[2:3],,8,8,6,5,4,35,2h[4:5],1,1,3,1,1,38,38,
2h[2:3],E2,E4,C,E1,E3,E5,C,18,27,{8}36,36,{4}3>6[2:1]/6,,,,1b/8b,
{16}24,,,45,,,{8}56,7-3[8:1],7,8,1,{16}2x/4x,,,45,,,{8}56,7-3[8:1],7,8,1,
{16}2x/4x,,,45,,,{8}56,7-3[8:1],7,8,1,2-5[8:1],2,1-6[8:1],1,4,,2b/5b,,
16,6,3,4,25,2,6,5,47,7,2,1,38,3,6,6,
{16}4,5,4,5,3,6,3,6,2,7,2,7,1,8,1,8,{4}1-6[8:1],7-4[8:1],3-8[8:1],5b-1[8:1],
{1}Cf,,,,
E
MASTER
(185)
{16}4,,5,,45,,6,5,6,5,6,,3,4,2,3,
{1}1bv3[2:1]*>1[1:2],,1v4[4:3]*>1[1:2],,1-5[1:1]*>1[1:2],,1v6[4:5]*>6[4:5],,
{8}4h[4:1]/5,,5,3,5,4,5,2,2h[4:1]/4,,4,3,4,2,4,3,
{8}5h[4:1]/4,,4,6,4,5,4,7,7h[4:1]/5,,5,6,5,7,57,,
{16}4x,5,4,,3,,2,,8x,1,8,,7,,6,,8x,7,8,,1,,2,,4x,3,4,,5,,6,,
8x,7,8,7,1,6,1,6,2,5,2,5,3,4,3,4,{8}3pp5[8:1],5^3[8:1],3^1[8:1],,8v5[8:1]*q4[8:1],,8x,,
2,6,37,8,14,,37,6,2<6[4:1]/5,,6<2[4:1],,4,5,6,,
7,3,26,1,58,,26,3,4/7>3[4:1],,3>7[4:1],,5,4,3,,
3,7,26,5,14,,26,7,3<7[4:1]/8,,7<3[4:1],,1,8,7,,
8,2,37,4,56,,47,3,B8/E8,B2/E3,B6/E7,B4/E4,E1,C,E5,,
2-6[8:1],7,,5,1-5[8:1],6,,4,8-4[8:1],5,,3,1,2,36,,
7-3[8:1],2,,4,8-4[8:1],3,,5,1-5[8:1],4,,6,8,7,36,,
3-7[8:1],6,,8,4-8[8:1],7,,1,5-1[8:1],8,,2,4,3,28,7,
{2}6b/B1/B2/Cf,2b/B5/B6/Cf,{4}3/7-4[8:1],2-5[8:1],8-5[8:1],4,
1-5[8:1]/2,{48}12,E3,B3,B4,E5,,,,,,,,{16}5hx[8:1]/6hx[8:1],,,4h[8:1]/5h[8:1],,,34,,
{4}8-4[8:1]/7,{48}87,E7,B6,B5,E5,,,,,,,,{16}4hx[8:1]/3hx[8:1],,,5h[8:1]/4h[8:1],,,65,,
{4}1-5[8:1]/8,{48}12,E3,B3,B4,E5,,,,,,,,{16}5hx[8:1]/6hx[8:1],,,4h[8:1]/5h[8:1],,,34,,
{4}8-4[8:1]/1,{48}87,E7,B6,B5,E5,,,,,,,,{16}4hx[8:1]/3hx[8:1],,,5h[8:1]/4h[8:1],,,65,,
{4}3x/7x^4[8:1],{32},E3,E2,E1,,,,,{4}4x/8x^3[8:1],{32},E5,E6,E7,,,,,
{4}4x/8x^5[8:1],{32},E4,E3,E2,,,,,{4}1x^4[8:1]/5x,{32},E6,E7,E8,,,,,
{16}8,3,8,3,7,2,7,2,6,1,6,1,{32}5,4,3,2,1,8,7,6,{12}5h[4:1],,,3,4,2,6,5,7,1bw5[16:1],,,
{64}1,B1,Cf,B4/B5/B6,,,,,{8},,,2h[4:1]/7,,4h[8:1],3h[8:1],Ch[4:1],,1h[8:1],3h[8:1],2h[8:1],4h[8:1],3h[8:1],5h[8:1],
Ch[8:1],1h[8:1],3h[8:1],2h[8:1],4h[8:1],3h[8:1],Ch[8:1],1h[8:1],3h[8:1],2h[8:1],4h[8:1],3h[8:1],5,5,7,7,
1,1,2-6[16:1]/8,28,{32}2/8h[4:1],Cf,,,,,,,{8},,1/7h[4:1],,3h[8:1],4h[8:1],1h[8:1],8h[8:1],5h[8:1],6h[8:1],
{2}4h[4:1],2h[4:1]/6h[4:1],{4}8-4[8:1],8^3[8:1],8^5[8:1],8w4[16:1],
{64}8,B8,Cf,B5/B4/B3,,,,,{8},,,7h[4:1]/2,,5h[8:1],6h[8:1],Ch[4:1],,8h[8:1],6h[8:1],7h[8:1],5h[8:1],6h[8:1],4h[8:1],
Ch[8:1],8h[8:1],6h[8:1],7h[8:1],5h[8:1],6h[8:1],Ch[8:1],8h[8:1],6h[8:1],7h[8:1],5h[8:1],6h[8:1],{6}4,78,12,
{2}3v6[8:1]/4v6[8:1],{8}7h[4:1]/8,,5h[8:1],6h[8:1],Ch[4:1],,7h[8:1],6h[8:1],8h[8:1],5h[8:1],1h[8:1],4h[8:1],
2h[8:1],{16}4,3,4,,8,1,8,,5,6,5,,46,,{4}3/7^4[8:1],1^4[8:1],8p4[8:1],2-6[8:1],
{4}4x,4,3,3,2,2,1,1,{16}2,8,2,8,3,7,3,7,4,6,4,6,5,5,5,5,{4}5w1[4:1],,,3b/7b,
{16}1x-5[8:1]/8x,,,2,1x,,4h[4:1],,3x,2,1,8,3x/7x,6,5,4,8x-4[8:1],,,7,{8}8x,6h[4:1],7x-3[8:1],1-5[8:1],7x,1,
{4}4x<8[4:1],8x>8[2:1],Cf,8x>8[2:1],Cf,{8}1x,1,2,2,13,,
{16}2x/8x-4[8:1],,,7,8x,,5h[4:1],,6x,7,8,1,6x/2x,3,4,5,1x^7[8:1],,,2,{8}1x-6[8:1],3,1x-5[8:1],4,1x,3,
{16}2,4,2,4,2-6[8:1],,1,,{4}2x/8x-3[8:1],5x-1[8:1]/8x,5x/6,{8}7,6,1b/5b,2,36,7,
{16}2/8x^3[8:1],,,7,8x,,4h[4:1],,5x,6,7,8,1x/5x,26,37,48,1x-5[8:1]/5x,,,2,{8}1x,3h[4:1],2x-6[8:1],8-4[8:1],2x,8,
{4}5x>1[4:1],1x<1[2:1],Cf,1x<1[2:1],Cf,{8}8x,8,7,7,86,,
{16}4x^7[8:1]/6,,,3,4x,,8h[4:1],,1x,2,3,4,1x/5x,26,37,48,1x/5x^3[8:1],,,6,{8}5x-2[8:1],7,5x-1[8:1],8,5x,7,
{16}6,8,6,8,6-2[8:1],,5,,{4}4x-7[8:1]/6b,1xw5[16:1]/4b,{32}1b,Cf,,,,,,,{4},,36,
8^3[4:1],3q8[4:1],8q5[4:1],5^8[4:1],8^3[4:1],3^6[4:1],6,1,
3p6[4:1],6^3[4:1],3^8[4:1],8p3[4:1],3p6[4:1],6^3[4:1],3,8,
6^3[4:1],3p6[4:1],6p1[4:1],1^6[4:1],6^3[4:1],3^8[4:1],8,5,
3p6[4:1],6^3[4:1],3,8q3[2:1]*p5[2:1],8,,,2b/7b,
{16}2/8x^3[8:1],,,7,8x,,4h[4:1],,5x,6,7,8,1x,28,37,46,5x^7[8:1],,,4,5x,,8h[4:1],,1x,2,3,4,5x,46,37,28,
1x^4[8:1],,,8,1x,,5h[4:1],,6x,7,8,1,2x/6x,3,4,5,{8}8-6[8:1],1-3[8:1],8-4[8:1],1-5[8:1],8,1,7b,6,
{16}1-6[8:1],2,3-8[8:1],,1,,3,,5-2[8:1],6,7-4[8:1],,5,,7,,8-5[8:1],1,2-7[8:1],,8,,2,,4-1[8:1],5,6-3[8:1],,4,,6,,
8,4,1,5,2,6,3,7,{32}4b,5,6,7,8,1,2,3,4b,5,6,7,8,1,2,3,
{4}4b/8x-4[8:1],4x>5[4:1]/8x,,1xw5[16:1],
{32}1b,Cf,{1},,,,
E
Re:MASTER
- MASTER譜面の{32}1,B1,Cf,B4/B5/B6,→{64}1,B1,Cf,B4/B5/B6,、{16}2,5,2,5,→{16}2,4,2,4,の箇所の修正を行いました。 -- けもがみ (2026-05-16 12:33:05)
最終更新:2026年05月16日 12:33