アットウィキロゴ

Estahv

アーティスト Feryquitous

BPM BASIC ADVANCED EXPERT MASTER Re:MASTER
191 4 7 11+ 13+ -

EXPERT MASTER Re:MASTER
譜面制作者 はっぴー 翠楼屋 -

BASIC


ADVANCED


EXPERT


MASTER

(191){8}
4h[4:1],,5,4h[4:1],,5p4[1:1],4x,,{1},
{8}3h[4:1],,4,3h[4:1],,4,3xq4[8:7],,{1},
{8}5h[4:1],,4,5h[4:1],,4q5[1:1],5x,,{1},
{8}6h[4:1],,4,6h[4:1],,4,C,,
,,,,,{16}8,1,8,1,8,1,
{8}7xh[4:1],,,5/6h[4:1],,,5<1[2:1]/6,,
,,,,5x,,,,
2h[4:1],,,3h[4:1]/4,,,3/4>8[2:1],,
,,,,4x,,4,,
5h[4:1],,4,5h[4:1],,3,5h[4:1],,
2,5h[4:1],,1,1,6pp4[8:13],3,4b,
{1},,

{8}3,4,2-5[8:1]/5,,5,6-1[8:1],,4,
4h[4:1],,1,1-5[8:1],,3,3-6[8:1],,
7,7,5/8h[4:1],,5,6,4/7-3[8:1],3,
2,2,14,,6^1[8:1],6,1,2,
3-5[8:1],,6,7-3[8:1],,3,2,1,
8,5/7-5[8:1],,3,3-7[8:1],2,4-8[8:1],5,
1x,,17,1h[4:1]/7,,5,6-4[8:1],,
{2}3h[1:1],,

1b>8[1:2],,,{8},C,,,
{1}1>8[1:2],,1>8[1:2],,
Ch[1:1],{4},,,2-4[8:1]/7-5[8:1],
2x/7x,3x/6x,{8}4/5-1[8:1],3,2-5[8:1],2,
8-2[8:1],8,4,3,5,6x^1[8:1],,3,
3x,,8,7,46,3,5,6,
7-3[8:1],8,7,1-5[8:1],5-3[8:1],1,8,7,
6b-1[8:1]*-4[8:1],,,,1x/4x,,35,,
6-8[8:1],6,5,4,3-1[8:1],3,8,7,
{4}6-3[8:1],3,2-6[8:1],6,
8-4[8:1],4,35,2/6p1[4:1],

{8}1b<4[8:3],,,4q1[4:1],,,3,,
2,2h[8:3],{4},1,3^8[4:1],
8q4[4:1],4q8[4:1],8p3[4:1],3q1[4:1],
1p2[4:1],5,,15,
{8}2,2^4[4:1],,4^7[4:1],,7^2[4:1],,2V46[4:1],
,6,7,7,,28,2/8<2[8:5],,
1x,,,2^7[16:5],,,4,,
5,5h[8:3],,,6,,56,,
7V53[2:1],,5V31[2:1],,,1,{4},
,,3V57[2:1],5V71[2:1],
7V13[2:1],1,,{8}6,6h[8:7],
,,5h[4:3],,,,,,
7p1[8:3],,,{4}1^4[4:1],4^7[4:1],7^2[4:1],
2^5[4:1],5,7,{8}15,
{2}1pp5[8:13]/5,,
,{8},,,Ch[8:17],
{2},,,,

8b-3[8:1]*-5[8:1],{16}2x/6x,,3,5h[8:1],,4,6h[8:1],,
5,7h[8:1],,4,8,,13,,2,,7x/8x-4[8:1],,,,6,,
6x-3[8:1],,,,1,,,,2,4,2,4,2,,6,5,
6,5,6,,47,,8,,57,,6,,45,,3,3,
1bv4[8:1]*v6[8:1],,,,,,,,3x/7x,,6,4h[8:1],,5,3h[8:1],,
4,2h[8:1],,5,1,,68,,7,,1/3xv8[8:1],,,,6,,
7xv4[8:1],,,,1x,,,,2,1,2,1,2-5[8:1],,8,,
{2}2bz6[16:9]*V84[16:9],,
3xv1[8:1]/7xv5[8:1],{16}2x/6x,,3,5h[16:1],,4,6h[16:1],,
5,7h[16:1],,4,8,,13,,2,,1/7x-4[8:1],,,,8,,
1x,,2x/5x,,6x,,6x,,4h[16:1]/7h[8:1],,,4h[8:1]/7h[16:1],{8},56,
47,3b/8b,1b/2b,38,4-2[8:1]/7,,6^4[8:1],7,
1b-5[8:1]*-7[8:1],,,,{16}6h[16:1],,4,5h[16:1],,3,4h[16:1],,
2,4,,1,1,,28,,3,6,4,,35,,2,,
1,8,1,,26,,35,,6,5,7,,28,,2h[16:13]/8h[16:13],,

{4},,,2-5[8:1]/8-4[8:1],
2b/8b`Cf,{8}18,2,3-7[8:1],,8V26[4:1],,
5,5,,4,{4}4p8[8:1]*q8[8:1],4,
1x-3[8:1]/7x-4[8:1],17,1-4[8:1]/6-4[8:1],16,
1w5[8:1]/2,1b,{8},4x/6x,3x/7x,,
1^4[8:1],1,5,6h[4:1],,5,7-5[8:1],8,
7,1-6[8:1],2,1,2-5[8:1],5V31[4:1],2/6-8[8:1],,
6b,,,2xV48[4:1]/8x,,6,7^4[8:1],,
17,2-5[8:1],,24,6-2[8:1],,1>8[8:9]/6,,
{2}1b/Cf,,,{24}1b-5[8:1]/8b-4[8:1],27,36,{8}45,1b/8b,,
2xv5[8:1]/6xv1[8:1],,2b/6b`Cf,,,,48,2>8[32:11]/6,
,5,5h[4:1],,{32}1x,2x,3x,4x,5x,6x,7x,8x,{8}1b,,
28,7^2[8:1],5,4-8[8:1],,4/6^3[8:1],,1-5[8:1]/6,
,1/8-4[8:1],7,2^7[8:1]/8,,2/6<4[8:9],,6b/Cf,
{2},,

,{16}4,5,3,6,2,7,1,8,
1bw5[8:1],,,,1,,,,37,,6,5,6,,25,,
3,4,3,,7,7,5,6,2,2,4,3,8,,17,,
26,,35,,45,,36,,2,7,1-6[8:1],8,2,7,1bs5[1:1]*V73[1:1],,
{1},,,E

Re:MASTER


名前:
コメント:

タグ:

+ タグ編集
  • タグ:
最終更新:2026年04月05日 12:34