アットウィキロゴ

無敵We are one!!

アーティスト イロドリミドリ「CHUNITHM」

BPM EASY BASIC ADVANCED EXPERT MASTER Re:MASTER
190 3 5 9 10 13+ -

EXPERT MASTER Re:MASTER
譜面制作者 ロシェ@ペンギン Techno Kitchen -

EASY


BASIC

(190.0){1},
{2}1,1,
{4}1,1,1,,
{2}8,8,
{4}8,8,8,,
{2}2,2,
{4}2,2,2,,
{2}7,7,
{1}7h[2:1],
{1}7-4[4:3],,
{1}2-5[4:3],,
{1}4/5,
{2}5,5,
{1}5,
{2}6,6,
{1}5/6,
{2}7,7,
{1}7,
{2}8,8,
{1}1/8,
{2}1,1,
{1}1,
{2}2,2,
{1}1/2,
{2}3,3,
{1}3,
{2}4,4,
{2}5,5,
{2}3/6,6,
{4}5,5,5,,
{2}3,3,
{4}4,4,4,,
{1}6h[1:1],
{2},5/6,
{1}7h[1:1],
{2},7/8,
{2}8,8,
{2}1,1,
{4}2,2,2,,
{4}3,3,3,,
{1}4-8[4:3],,
{1}5-1[4:3],,
{4}8,8,8,,
{4}7,7,7,,
{4}6,6,6,,
{4}5,5,5,,
{4}4,4,4,,
{4}3,3,3,,
{4}2,2,2,,
{1}1h[2:1],
{4}1,1,1,,
{4}2,2,2,,
{4}3,3,3,,
{4}4,4,4,,
{1}5h[2:1],
{1}4h[2:1],
{2}4/5,4/5,
{1}3b/6b,
{2}7,7,
{1}1/8,
{1}1-5[4:3],,
{1}6,
{1}5/6,
{1}3,
{1}3/4,
{2}6,6,
{1}5/7,
{2}3,3,
{1}2/4,
{2}5,5,
{2}6,6,
{2}7,7,
{1}1/8,
{1}2h[2:1]/7h[2:1],
{1}1b/8b,
{4}2,2,2,,
{4}3,3,3,3,
{4}4,4,4,,
{4}5,5,5,5,
{4}6,6,6,,
{4}7,7,7,7,
{1}8h[2:1],
{4}8,8,8,8,
{4}7,7,7,,
{4}6,6,6,6,
{4}5,5,5,,
{1}4h[2:1],
{1}5h[2:1],
{2}3/6,2/7,
{1}1b/8b,
{1}1-4[4:3],,
{1}8-5[4:3],,
{1}1h[1:1],,
{4}1,1,1,,
{4}2,2,2,,
{4}3,3,3,,
{4}4,5,4/5,,
{4}5,5,5,,
{4}6,6,6,,
{4}7,7,7,,
{4}8,1,1/8,,
{4}2h[4:5]/7h[4:5],{1},,
E

ADVANCED

(190.0){4}1,1,8,8,
{4}1,2,3,4,
{4}5/6,3/4,1/2,,
{4}7,7/8,2,1/2,
{4}8,1,2/7,,
{4}8,7,6,5,
{4}3/4,5/6,7/8,,
{4}2,1/2,7,7/8,
{2}1h[4:3],8h[4:1],
{4}2b/7b,2/7,,3/6,
{4},4/5,,5/7,
{4},4/5,,2/4,
{4}5,6,7,1/8,
{4}2,3,4/5,,
{4}4,4,5,5,
{4}4,3,1/2,,
{4}5,5,4,4,
{4}5,6,7/8,,
{1}1-5[8:3]/2-4[8:3],
{1}4-8[8:3]/5-7[8:3],
{4}1,2,8,7<2[4:3],{1},
{4}1,1,8,8,
{4}1,2,3/4,,
{4}8,8,1,1,
{4}8,7,5/6,,
{4}4,4,2/6,,
{4}5,5,3/7,,
{2}2/4,5/7,
{2}1/2,7/8,
{4}1b,8,7,6,
{4}5,4,6,5/7,
{4}8,1,2,3,
{4}4,5,3,2/4,
{1}1>5[16:11],
{4},5,6,7,
{1}8<4[16:11],
{4},4,3,2,
{4}1,1,8,8,
{4}2,2,7,7,
{2}3h[2:1],4h[2:1],
{2}5h[2:1],6h[2:1],
{1}7pp2[4:5],,
{8}4/5,,3/6,,2/7,2/7,,1^4[8:3]/8^5[8:3],{1},
{4}3,2/4,6,5/7,
{4}3/4,1/2,7/8,,
{4}2,3/8,7,1/6,
{4}2/7,2/7,1/8,,
{4}2,5,4,7,
{4}1,8,2/7,,
{4}3,8,1,6,
{4}1/8,1-4[16:3]/8-5[16:3],,,
{4}6,5/7,3,2/4,
{4}5/6,7/8,1/2,,
{4}7,1/6,2,3/8,
{4}2/7,2/7,1/8,,
{2}2h[2:1],1h[2:1],
{2}8h[2:1],7,
{4}3/6,3/6,2/7,2/7,
{8}1/8,1/8,1/8,,,,,,
{4}2/4,3,5/7,6,
{1}1b/8b,
{8},3pp6[4:5],,,,,,,{1},
{2}7,6,
{2}5,3/4,
{2}2,3,
{2}4,5/6,
{4}7,7,8,8,
{4}1,1,2/7,,
{4}3,3,4,4,
{4}5,5,6,6,
{4}7,8,1,2,
{4}3,4,5/6,3/4,
{4}5,4,4^1[2:1]/5^8[2:1],,
{8},,,,,1-4[8:3]/8-5[8:3],,,
{4},,4,5<4[4:3],{1},
{4}2/5,4/7,3b/6b,1b/8b,
{8}2,2,8,,7,7,1,,
{4}2/8,4/5,1/7,,
{4}2,5,4,7,
{4}1/8,1/8,2/7,,
{2}3h[4:1]/4h[4:1],5h[4:1]/6h[4:1],
{4}4/5,3/6,2/7,1/8,
{4}7,1/6,2,3/8,
{4}2/7,4/5,2/7,1b/8b,
{8}7,7,1,,2,2,8,,
{4}1/7,4/5,2/8,,
{2}7h[2:1],8h[2:1],
{2}1h[2:1],2,
{4}4/5,3/6,2/7,1/8,
{8}1/8,1/8,1^4[16:5]/8^5[16:5],,,,,,
{2}3h[2:1],4,
{4}5,4,3/6,,
{2}6h[2:1],5,
{2}3h[2:1],4h[2:1],
{1}5<4[8:11],,
{4}3,3,2,2,
{4}1,1,8,1,
{4}6,6,7,7,
{4}8,8,1,8,
{2}2/7,3>6[4:3],
{4},,,1/8,
{4}2,3,5,4,
{4}7,6,4,5,
{4}3,2/5,6,4/7,
{8}3/6,,1/8,1/8,
E

EXPERT

(190.0){4}2/7,3/6,4/5,1b/8b,
{4}7,7/8,2,1/2,
{4}3/6,4/5,2/7,,
{8}2,1,2,,7,8,7,,
{4}3/4,3-1[8:1]/4-6[8:1],,,
{4}2,1/2,7,7/8,
{4}1/8,3/6,1/8,,
{8}7,8,7,,2,1,2,,
{1}6q1[2:1],
{4}2b/7b,,4/5,4/5,
{4}6h[4:3],5,5,5,
{8}1,8,1,8,1,8,1,8<2[8:5],{1},
{4}1,8,2/7,3/6,
{4}5,3/4,2,3/4,
{4}5/6,7/8,1/2,3/4,
{4}6,5/6,3,3/4,
{8}2/5,,2/5,,5,4,5,4,
{8}7h[4:3],,1,1h[8:3],,,,,
{8}2h[4:3],,8,8h[8:3],,,,,
{8}4/5,,6,6,,3,{4}3pp8[2:1],{1},
{8}5h[2:1],,,,4,5,4,5,
{4}3,1/2,7/8,5/6,
{4}3,3/4,6,5/6,
{8}4/7,,4/7,,4,5,4,5,
{8}2h[4:3],,1,1,,8,8,,
{8}7h[4:3],,8,8,,1,1,,
{1}3q6[2:1],
{2}7h[4:1]/8h[4:1],1h[4:1]/2h[4:1],
{4}8h[4:1],7h[4:1],6h[4:1],5pp1[2:1],{1},
{4}1h[4:1],2h[4:1],3h[4:1],4qq8[2:1],{1},
{8}8h[8:3],,,2h[8:3],,4,{4}4-1[2:1]*-7[2:1],{1},
{8}1h[8:3],,,7h[8:3],,5,{4}5-2[2:1]*-8[2:1],{1},
{4}1,4/5,8,4/5,
{4}2,4/5,7,4/5,
{2}5-1[4:1],4-8[4:1],
{2}6-1[4:1],3-8[4:1],
{1}7<3[2:1],
{1}2<6[2:1],
{8}4/5,,3/6,,1/8,1/8,,2bV48[8:3]/7bV51[8:3],{1},
{4}6,6/8,3,1/3,
{4}7/8,1/2,7/8,,
{8}6,5,6,,3,4,3,,
{4}4/5,4-1[4:1]/5-8[4:1],,,
{4}3,1/3,6,6/8,
{4}1/2,7/8,1/2,,
{8}3,4,3,,6,5,6,,
{1}3-7[4:1]*-8[4:1],
{4}6,7/8,3,1/2,
{4}7/8,1/2,1/8,,
{1}1v3[4:1]/7v5[4:1],
{1}2v4[4:1]/8v6[4:1],
{4}5,5,4,4,
{4}6,6,3,3,
{8}2/7,,1,1,,8,8,,
{8}1/8,1/8,8/1>8[2:1],,,,,,
{4},,4/5,4/5,
{8}7h[8:5],,,2h[4:1],,,1/8,,
{8},2,,5,5,,4,4,
{8},7,7,,1b/8b,,1b/8b,,
{1}8^3[8:3]*^5[8:3],
{1}1^4[8:3]*^6[8:3],
{1}5^2[8:3]/6p1[8:3],
{1}3q8[8:3]/4^7[8:3],
{4}6,5/6,3,3/4,
{4}7,5/7,2,2/4,
{4}8h[4:3],5,3,1,
{4}1h[4:3],4,6,8,
{4}8h[4:3],6,4,2,
{4}1h[4:3],3,5,7,
{8}1/8,,3/6,,4/5,4^1[8:3]/5^8[8:3],,,
{8},,,,,1/8,,1bpp2[8:3]/8bqq7[8:3],{1},
{4}5,4,6,3,
{4}1/2,7/8,3/6,1b/8b,
{8}2,1,2,,6,5,6,,
{4}7/8,1^6[4:1]/2^5[4:1],,,
{4}4,1/2,5,7/8,
{4}2/8,1/7,2/8,,
{4}3h[4:1],4h[4:1],5h[4:1],6-1[4:1],
{2},2b/7b,
{4}2,1/8,7,1/8,
{4}3/4,5/6,1/8,2b/7b,
{8}3,4,3,,7,8,7,,
{1}4^1[4:1]*^7[4:1],
{4}4/5,4/5,3/6,3/6,
{4}2/7,2/7,1/8,1/8,
{8}2/7,,1,1,,8,8,,
{8}2/7,2/7,2/7q8[2:1],,,,,,
{4}2h[4:3],,4,4,
{4}7h[4:3],,5,5,
{2}1h[2:1],8h[2:1],
{2}1b^4[4:1],8b^5[4:1],
{1}3b<2[4:3],,
{8}5/6,,5/6,,7,8,7,,
{8}3/4,,3/4,,2,1,2,,
{4}4,5,6,7,
{4}8h[2:1],1,1,,
{8}1h[4:1]/2h[4:1],,,,5,4,5,4,
{8},7/8,,1/2,,1/8,1/8,,
{8}4,5,4,5h[8:7],,1,1h[2:1],,
{8},,,,5,4,5,4,
{8}8b,,,1b/7b,,,2b/6b,,
{8},,1/5,1/5,
E

MASTER

(190.0){4}2/7,3/6,4/5,1/8,
{8}5,,4/6,,3/7,,2/8^5[8:1],1,
{4}8^3[8:1],8-4[8:1],,,
{8}1/7,,2/6,,3/5,4,3/5,,
{4}2/6,1-4[8:1]/7-4[8:1],1/7,,
{8}4,,3/5,,2/6,,7/1^4[8:1],8,
{4}1^6[8:1],1-5[8:1],,,
{16}3/7,,6,5,6,,3/7,,2^4[8:1]/8^6[8:1],,,,2/8,,,,
{4}1^4[4:1],4^7[4:1],7^2[4:1],2,
{8}5b,,2/7,,5,3,4,2,
{8}1/8,,1/8,,4,6,5,7,
{16}1,8,1,8,2,7,2,7,1,8,1,8,1,,2b/7b,,
{16},,,,1/8,,,,2/7,,4,5,4,5,4,5,
{16}4,,,,2/7,,1,8,2,7,3,,4/5,,,,
{4}2^5[8:1],1,8^5[8:1],1,
{4}2^5[8:1],8^5[8:1],2^5[8:1],1,
{4}7^4[8:1],8,1^4[8:1],8,
{4}7^4[8:1],1^4[8:1],7^4[8:1],8,
{8}7/2h[4:1],,4,4-7[8:1],,1,1,,
{8}2/7h[4:1],,5,5-2[8:1],,8,8,,
{8}7/2h[4:1],,4,4-8[8:1],,1,1,,
{8}1h[8:1],8h[8:1],7h[8:1],6h[8:1],5h[8:1],4h[8:1],3h[8:1],2h[8:1],
{1}1pp5[2:1]*qq5[2:1],
{8}5/7,5/7,4/6,4/6,3/5,3/5,2/4,2/4,
{8}6/8,6/8,1/7,1/7,2/8,2/8,1/3,1/3,
{8}5/7,4/6,3/5,2h[8:3]/4h[8:3],,,,,
{8}1/7h[4:1],,6,5-1[8:1],,8,8,,
{8}7/2h[4:1],,3,4-8[8:1],,1,1,,
{8}2/7h[4:1],,6,5h[8:3],,,7h[4:1],,
{4}2h[2:1],8,7h[4:1],5-1[8:1],
{8}8b,,6,,5/7,5/7,,2/4,
{8},5/7,6,2/4,3,,1/8,1/8,
{8},,3,,2/4,2/4,,6/8,
{8},1/4,3,5/8,6,,1/8,,
{8}4/2h[4:3],,6,6,,8,8h[4:5],,
{4},6,2,6,
{8}2h[4:3],,1,1,,4,4h[4:5],,
{4},6,2,6,
{8}2-5[8:1],,1,8,7-4[8:1],,1,2,
{8}3-8[8:1],,4,5,6-1[8:1],,5,4,
{4}3^6[4:1],6^1[4:1],1^4[4:1],4<8[4:1],
{4}8>4[4:1],4<1[4:1],1>7[4:1],5,
{4}8h[1:1],1,2,3,
{1}4w8[8:3],
{8}1/8,2/7,3/6,4/5,3/6,2-5[8:1]/7-4[8:1],,2b/7b,
{8},3/6,3/6,,3,6,4,5,
{8}4/6,,2/8,,3/5,,7/1^4[8:1],8,
{4}1^6[8:1],1w5[8:1],1,,
{8}2/8,,3/7,,4/6,5,4/6,,
{4}3/7,2^5[8:1]/8^5[8:1],2/8,,
{8}3/5,,1/7,,4/6,,2/8^5[8:1],1,
{4}8^3[8:1],8w4[8:1],8,,
{16}2/6,,3,4,3,,2/6,,1^3[8:1]/7^5[8:1],,,,1/7,,,,
{4}4pp5[4:1],5>1[4:1],8b,,
{8}2/8,,4/6,,1/7,,3/5^8[8:1],4,
{4}5^2[8:1],5w1[8:1],5,,
{8}2/8,,3/7,,4/6,2/8,,1/7,
{4}3/5,1^4[8:1]/7^4[8:1],1/7,,
{4}7/8-3[8:1],8/7-4[8:1],7/8-3[8:1],8/7-4[8:1],
{4}7/8-3[8:1],8/7^4[8:1],8b,,
{8}1/2,3/8,4/7,1/8,2/7,3/6,7/8,1/6,
{16}2/5,,2/5,,2b/5b,,,,1/6,,,2/7,,,3/8,,
{8}1<5[4:1]/4>8[4:1],,,,,,5/8,1/6,
{4}2V48[4:1]/7V51[4:1],,,2b/7b,
{8},2-5[8:1],1,2,7-4[8:1],8,7,2-5[8:1],
{8}1,2,7-4[8:1],8,7/1-5[8:1],,1b,,
{8}6,,7,,8,,1,1,
{4},2/8,3/7,,
{2}6^1[4:1],3^8[4:1],
{1}5<4[2:1],
{8}3,,2/4,,6,,5/7,5/7,
{8},2/4,2/4,,3/6,,2b/7b,,
{8}1/8-4[8:1],,2/8,,3,4,2,,
{8}8/1-5[8:1],,1/7,,6,5,7,,
{8}1/8,,2/7,3/6,,1-3[8:1]/8-4[8:1],,1/8,
{4},2/7,1-5[8:1]/8-6[8:1],1/8,
{8},3h[4:1]/6h[4:1],,,1/2,1^6[8:1]/2^4[8:1],,1/2,
{8},5,5,,7/8,7^5[8:1]/8^3[8:1],,7/8,
{8},4,4,,1^4[8:1]/8^5[8:1],,1/8,,
{8}2/7,,4/5,,3/6,,1^6[8:1]/8^3[8:1],2/7,
{4}1-5[8:1]/8-4[8:1],1^4[8:1]/8^5[8:1],1/8,1b/8b,
{4}2h[8:1]/7h[8:1],2h[8:1]/3h[8:1],2h[8:1]/7h[8:1],6h[8:1]/7h[8:1],
{8}2/7,,1^3[8:1]/8^6[8:1],,1/8,,4,5,
{8}4/6,,2/8,,3/5,,7/1^4[8:1],8,
{4}1^6[8:1],1w5[8:1],1,,
{16}3/7,,6,5,6,,3/7,,2^4[8:1]/8^6[8:1],,,,2/8,,,,
{4}5qq4[4:1],4<8[4:1],1b,,
{8}1/3,,6/8,,2/7,,1^6[8:1]/8^3[8:1],2/7,
{4}1-5[8:1]/8-4[8:1],1^4[8:1]/8^5[8:1],1/8,1b/8b,
{8}1/3,2,1/3,,5/7,6,5/7,,
{16}2/8,,,1w5[16:3],,,2/8,,1,,,,,,,,
{4}2/1-6[8:1],1/2-5[8:1],2/1-6[8:1],1/2-5[8:1],
{4}2/1-6[8:1],1/2^5[8:1],1b,,
{8}7/8,1/6,2/5,1/8,2/7,3/6,1/2,3/8,
{16}4/7,,4/7,,4b/7b,,,,3/8,,,2/7,,,1/6,,
{4}5<1[4:1]/8>4[4:1],,,1/4,
{4}1<5[4:1]/4>8[4:1],,,5/8,
{4}5<1[4:1]/8>4[4:1],,,1/4,
{2}3h[4:1]/8h[4:1],2h[4:1]/7h[4:1],
{8}1h[4:3]/8h[4:3],,,,,,,2b/7b,
{8},1/8,2/7,,4/6,5,3/7,5,
{8}2-5[8:1]/8-5[8:1],,2/8,,4/6,5,4/6,5,
{8}1-4[8:1]/7-4[8:1],,1/7,,3/5,4,3/5,4,
{8}1-6[8:1]/2-5[8:1],,1/2,,4/7,5/6,4/7,5/6,
{8}7-4[8:1]/8-3[8:1],,7/8,,2/5,3/4,2/5,3/4,
{8}1^4[8:1]/2<6[8:1],,,,5,4/6,3/7,8/2-5[8:1],
{8},2/7-4[8:1],,7/1w5[8:1],,,,,
{8}7/8,1/6,2/5,1/8,2/7,3/6,1/2,3/8,
{8}4/7,1/8,2/7,3/6,1^4[8:1]/8^5[8:1],,1/8,,
{8}2h[4:1]/6h[4:1],,,4h[4:1]/8h[4:1],,,2-5[8:1]/6-1[8:1],,
{8},,4b/8b,2b/6b,
E

Re:MASTER


名前:
コメント:

タグ:

+ タグ編集
  • タグ:
最終更新:2026年10月03日 22:48